<?xml version="1.0" standalone="no"?>
<!DOCTYPE svg PUBLIC "-//W3C//DTD SVG 1.1//EN" "http://www.w3.org/Graphics/SVG/1.1/DTD/svg11.dtd">
<svg xmlns="http://www.w3.org/2000/svg">
<defs >
<font id="Lobster" horiz-adv-x="594" ><font-face
    font-family="Lobster"
    units-per-em="1000"
    panose-1="0 0 5 0 0 0 0 0 0 0"
    ascent="1000"
    descent="-250"
    alphabetic="0" />
<glyph unicode=" " glyph-name="space" horiz-adv-x="217" />
<glyph unicode="!" glyph-name="exclam" horiz-adv-x="257" d="M174 731L328 752L183 231H98L174 731ZM79 -6T56 17T32 74Q32 107 55 130T112 153Q145 153 168 130T191 74Q191 41 168 18T112 -6Q79 -6 56 17Z" />
<glyph unicode="&quot;" glyph-name="quotedbl" horiz-adv-x="353" d="M155 752H260L150 520H80L155 752ZM312 752H417L307 520H237L312 752Z" />
<glyph unicode="#" glyph-name="numbersign" horiz-adv-x="659" d="M481 415L456 292H550L535 215H440L402 28H329L367 215H238L200 28H127L165 215H60L75 292H180L205 415H103L118 492H221L257 673H331L294 492H423L459 673H533L496 492H593L578 415H481ZM407
415H279L254 292H382L407 415Z" />
<glyph unicode="$" glyph-name="dollar" horiz-adv-x="548" d="M415 574T426 597T437 645Q437 669 427 685T396 710L340 466L363 441Q402 400 426 369T467 298T484 214Q484 151 450 98T358 14T230 -18L201 -143H151L180 -15Q104 -3 59 44T14 160Q14 219 45 257T125
295Q158 295 182 277T211 229Q169 229 143 205T117 140Q117 105 138 82T196 54L263 350Q245 371 244 372Q190 436 163 481T136 580Q136 632 164 673T243 739T355 763H357L380 863H431L407 758Q466 747 499 711T533 623Q533 581 512 555T457 529Q419 529 396 560Q415
574 426 597ZM264 566T301 514L346 713Q309 707 287 680T264 614Q264 566 301 514ZM349 236T302 300L246 54Q293 62 321 95T349 177Q349 236 302 300Z" />
<glyph unicode="%" glyph-name="percent" horiz-adv-x="796" d="M50 340T50 489Q50 564 77 627T150 726T253 763Q311 763 340 726T369 614Q369 540 342 477T267 377T164 340Q50 340 50 489ZM204 381T227 418T264 516T278 647Q278 687 271 704T247 721Q222 721
198 684T158 586T142 464Q142 421 150 401T178 381Q204 381 227 418ZM585 752H657L241 0H169L585 752ZM467 -6T467 143Q467 218 494 281T567 380T670 417Q728 417 757 380T786 268Q786 194 759 131T684 31T581 -6Q467 -6 467 143ZM621 35T644 72T681 170T695 301Q695
341 688 358T664 375Q639 375 615 338T575 240T559 118Q559 75 567 55T595 35Q621 35 644 72Z" />
<glyph unicode="&amp;" glyph-name="ampersand" horiz-adv-x="682" d="M660 393T660 382Q660 347 634 316T567 272Q550 267 527 267Q518 182 477 118T368 18T218 -18Q123 -18 69 30T14 160Q14 215 38 268T105 361T199 415V419Q168 445 155 474T142 546Q142 600
171 647T251 723T361 752Q429 752 473 713T517 614Q517 573 496 547T441 521Q403 521 380 552Q398 563 409 586T421 635Q421 663 407 679T369 695Q343 695 319 675T281 622T266 551Q266 501 293 467T367 420V416Q320 407 279 373T213 289T188 188Q188 136 214 107T286
78Q329 78 371 102T443 169T483 266Q461 266 437 260Q382 242 358 207L355 206Q344 220 337 242Q333 254 333 268Q333 302 357 329T417 367Q445 375 494 379Q527 381 551 386Q574 393 597 409T633 442H635Q650 427 657 405Q660 393 660 382Z" />
<glyph unicode="&apos;" glyph-name="quotesingle" horiz-adv-x="196" d="M155 752H260L150 520H80L155 752Z" />
<glyph unicode="(" glyph-name="parenleft" horiz-adv-x="437" d="M231 -161T191 -58T150 164Q150 290 195 407T325 617T519 763L532 723Q454 677 393 584T298 369T264 118Q264 23 283 -60T339 -208L306 -237Q231 -161 191 -58Z" />
<glyph unicode=")" glyph-name="parenright" horiz-adv-x="413" d="M-68 -197Q10 -151 71 -58T166 157T200 408Q200 503 181 586T125 734L158 763Q233 687 273 584T313 362Q313 236 268 119T139 -90T-55 -237L-68 -197Z" />
<glyph unicode="*" glyph-name="asterisk" horiz-adv-x="515" d="M233 368T206 376L230 521Q201 486 179 471T135 456Q113 456 99 472T85 513Q85 522 86 526L213 567Q143 579 118 596T92 640Q92 657 100 670T129 701L230 612Q213 673 213 702Q213 765 267 765Q281
765 310 757L285 612Q314 647 337 663T382 679Q405 679 419 663T433 622Q433 617 431 609L301 567Q370 554 395 537T421 493Q421 475 414 462T385 432L285 521Q301 457 301 431Q301 368 248 368Q233 368 206 376Z" />
<glyph unicode="+" glyph-name="plus" horiz-adv-x="442" d="M157 301H15L33 380H175L205 519H285L255 380H401L384 301H237L206 157H126L157 301Z" />
<glyph unicode="," glyph-name="comma" horiz-adv-x="216" d="M32 -120T32 -109Q32 -97 38 -88T58 -64Q72 -49 78 -40T84 -18Q84 -7 71 2Q24 32 24 75Q24 108 47 131T103 155Q135 155 153 134T171 79Q171 32 136 -27T41 -126Q32 -120 32 -109Z" />
<glyph unicode="-" glyph-name="hyphen" horiz-adv-x="290" d="M37 301H237L220 222H19L37 301Z" />
<glyph unicode="." glyph-name="period" horiz-adv-x="263" d="M77 -4T54 19T31 75Q31 108 54 131T110 155Q143 155 166 132T190 75Q190 42 167 19T110 -4Q77 -4 54 19Z" />
<glyph unicode="/" glyph-name="slash" horiz-adv-x="311" d="M223 750H295L83 -250H11L223 750Z" />
<glyph unicode="0" glyph-name="zero" horiz-adv-x="546" d="M113 -10T67 57T21 240Q21 378 64 496T184 684T361 755Q457 755 505 691T554 515Q554 404 520 283T412 76T223 -10Q113 -10 67 57ZM283 65T325 137T392 322T418 550Q418 613 403 654T360 696Q314 696
270 623T198 437T170 215Q170 65 236 65Q283 65 325 137Z" />
<glyph unicode="1" glyph-name="one" horiz-adv-x="317" d="M153 624H58L70 670Q125 670 184 685T324 748L165 0H21L153 624Z" />
<glyph unicode="2" glyph-name="two" horiz-adv-x="492" d="M293 -12T272 -7T219 7Q182 18 158 23T108 28Q52 28 -2 -1H-6Q-12 23 -12 46Q-12 88 9 128T62 203T147 290Q204 345 239 384T298 471T322 571Q322 628 304 661T247 694Q212 694 190 671T168 613Q168
579 181 553T216 514V510Q199 494 179 485T140 476Q109 476 89 504T68 580Q68 622 92 661T165 725T278 750Q365 750 418 702T472 568Q472 514 445 468T377 386T270 299Q204 249 165 213T105 137Q134 145 167 145Q191 145 217 141T266 132Q270 131 292 127T333 122Q360
122 383 133T431 173L434 171Q447 134 447 109Q447 74 429 47T379 4T313 -12Q293 -12 272 -7Z" />
<glyph unicode="3" glyph-name="three" horiz-adv-x="514" d="M134 -5T70 30T6 165Q6 230 37 269T127 308Q195 308 205 257Q154 254 136 222T117 149Q117 106 142 82T203 58Q235 58 264 77T313 135T332 229Q332 290 299 342T199 418Q252 433 291 465T350 537T370
613Q370 650 351 672T294 695Q258 695 237 674T215 617Q215 593 224 572T253 546Q216 512 177 512Q146 512 126 534T105 597Q105 642 132 676T207 730T312 749Q371 749 413 729T476 676T498 603Q498 551 463 501T361 417Q424 396 455 353T487 252Q487 190 452 131T352
33T205 -5Q134 -5 70 30Z" />
<glyph unicode="4" glyph-name="four" horiz-adv-x="476" d="M477 275T447 245T370 206L326 0H187L262 215L243 221Q203 232 180 237T131 242Q65 242 23 221H19L-2 260V265Q101 388 159 486T217 673Q217 703 209 735Q230 742 259 742Q304 742 329 718T354 655Q354
610 315 549T218 427T105 322L106 319Q124 326 148 331T195 337Q220 337 255 331T299 323L380 556H444L395 324Q430 337 458 371L461 369Q477 341 477 314Q477 275 447 245Z" />
<glyph unicode="5" glyph-name="five" horiz-adv-x="517" d="M109 -5T62 33T15 141Q15 204 51 242T145 281Q206 281 216 230Q175 225 151 201T126 137Q126 102 147 82T203 62Q261 62 298 114T335 247Q335 316 306 353T225 391Q172 391 94 346L81 355L158 734Q271
721 326 721Q417 721 500 749Q502 727 502 716Q502 664 475 632T387 600Q364 600 332 605T271 616Q246 621 220 625L180 444Q245 475 304 475Q386 475 433 420T481 269Q481 188 446 126T346 30T197 -5Q109 -5 62 33Z" />
<glyph unicode="6" glyph-name="six" horiz-adv-x="500" d="M115 -5T66 57T16 259Q16 393 62 505T189 683T365 749Q431 749 470 718T510 636Q510 597 489 571T437 544Q420 544 406 553T386 576Q402 584 410 600T419 634Q419 657 406 673T367 690Q326 690 287 647T216
529T171 360L174 361Q192 407 233 431T330 455Q399 455 441 409T483 282Q483 208 447 142T351 36T220 -5Q115 -5 66 57ZM269 73T295 100T339 175T356 279Q356 333 335 358T276 384Q162 384 162 219Q162 73 241 73Q269 73 295 100Z" />
<glyph unicode="7" glyph-name="seven" horiz-adv-x="464" d="M129 -4T102 28T75 117Q75 177 105 240T174 356T276 483Q326 543 347 572T369 621Q351 616 334 612T302 608Q276 608 239 619Q235 620 214 625T171 630Q142 630 119 618T73 578L70 579Q57 608 57 640Q57
693 95 724T194 756Q216 756 236 753T283 741Q315 732 337 728T385 724Q441 724 520 745L521 741Q521 718 498 677T423 556Q363 463 324 397T256 256T227 118Q227 66 245 15Q210 -4 175 -4Q129 -4 102 28Z" />
<glyph unicode="8" glyph-name="eight" horiz-adv-x="499" d="M397 399T422 370T466 304T484 223Q484 161 449 109T353 25T220 -6Q156 -6 106 18T27 86T-2 187Q-2 257 44 309T188 406Q145 451 122 490T98 576Q98 626 127 667T206 733T318 757Q371 757 413 739T478
689T502 616Q502 518 355 438Q397 399 422 370ZM291 709T266 682T240 611Q240 575 259 544T314 477Q351 510 373 552T395 633Q395 668 378 688T329 709Q291 709 266 682ZM270 63T302 99T335 184Q335 231 308 272T229 365Q181 333 156 287T130 186Q130 130 156 97T225
63Q270 63 302 99Z" />
<glyph unicode="9" glyph-name="nine" horiz-adv-x="489" d="M92 -3T53 28T13 110Q13 149 34 176T85 203Q103 203 117 194T136 171Q121 162 113 147T104 114Q104 93 116 79T154 65Q195 65 233 108T299 227T339 396L336 395Q318 349 278 325T181 301Q111 301 69
347T27 474Q27 547 65 610T168 712T306 750Q398 750 445 684T492 487Q492 352 448 240T327 63T158 -3Q92 -3 53 28ZM289 374T319 423T349 558Q349 685 276 685Q243 685 215 655T171 576T154 477Q154 424 173 399T224 374Q289 374 319 423Z" />
<glyph unicode=":" glyph-name="colon" horiz-adv-x="267" d="M137 296T114 319T91 375Q91 408 114 431T170 455Q203 455 226 432T250 375Q250 342 227 319T170 296Q137 296 114 319ZM87 56T64 79T41 135Q41 168 64 191T120 215Q153 215 176 192T200 135Q200 102
177 79T120 56Q87 56 64 79Z" />
<glyph unicode=";" glyph-name="semicolon" horiz-adv-x="276" d="M140 252T117 275T94 331Q94 364 117 387T173 411Q206 411 229 388T253 331Q253 298 230 275T173 252Q140 252 117 275ZM54 -104T54 -93Q54 -81 60 -72T80 -48Q94 -33 100 -24T106 -2Q106 9 93
18Q46 48 46 91Q46 124 69 147T125 171Q157 171 175 150T193 95Q193 48 158 -11T63 -110Q54 -104 54 -93Z" />
<glyph unicode="&lt;" glyph-name="less" horiz-adv-x="358" d="M7 238L16 279L353 449L346 369L124 253L306 158L284 81L7 238Z" />
<glyph unicode="=" glyph-name="equal" horiz-adv-x="515" d="M100 428H468L445 316H76L100 428ZM56 213H424L401 101H32L56 213Z" />
<glyph unicode="&gt;" glyph-name="greater" horiz-adv-x="362" d="M14 161L236 277L54 372L76 449L353 292L344 251L7 81L14 161Z" />
<glyph unicode="?" glyph-name="question" horiz-adv-x="441" d="M105 280T119 318T154 385T208 450Q251 498 272 534T294 620Q294 663 277 687T228 711Q195 711 173 688T150 629Q150 603 163 582T198 550V546Q180 530 161 521T123 512Q91 512 71 535T50 596Q50
643 77 681T152 741T257 763Q338 763 385 726T432 625Q432 586 415 554T373 496T305 437Q260 399 234 373T190 312T171 232H105Q105 280 119 318ZM94 0T70 23T46 80Q46 113 69 136T126 159Q159 159 182 136T206 80Q206 47 183 24T126 0Q94 0 70 23Z" />
<glyph unicode="@" glyph-name="at" horiz-adv-x="688" d="M126 -102T59 -43T-9 152Q-9 275 46 380T197 549T406 612Q515 612 582 553T650 383Q650 309 620 242T540 135T435 94Q402 94 382 110T359 157Q305 84 244 84Q206 84 185 110T164 187Q164 245 191 303T260
400T346 438Q361 438 373 432T398 411L415 436L490 428L444 252Q443 247 437 223T430 183Q430 170 434 161T450 152Q470 152 497 185T543 270T562 380Q562 458 524 499T414 540Q329 540 252 486T129 343T82 158Q82 65 122 22T244 -21Q305 -21 358 3T443 68Q455
62 462 49T470 16Q470 -23 433 -49T341 -89T238 -102Q126 -102 59 -43ZM302 153T317 162T340 184L390 373Q379 383 369 383Q345 383 320 353T277 278T260 195Q260 153 287 153Q302 153 317 162Z" />
<glyph unicode="A" glyph-name="A" horiz-adv-x="668" d="M181 -114T153 -108T105 -79T84 -8Q84 59 124 172T231 399Q181 396 152 384T114 347Q118 347 122 337T127 316Q127 298 111 288T71 277Q43 277 26 292T9 335Q9 369 35 397T109 441T213 458Q234 458 265
455Q347 585 438 667T613 750Q661 750 692 736L535 0H391L468 363Q431 380 400 388T334 399Q277 276 241 148T204 -58Q204 -96 218 -114Q181 -114 153 -108ZM535 679Q492 656 446 594T355 442Q427 428 477 407L535 679Z" />
<glyph unicode="B" glyph-name="B" horiz-adv-x="641" d="M347 -17T318 -1T288 57Q288 83 301 115Q319 95 334 87T368 79Q418 79 442 135T467 259Q467 386 372 386Q345 386 326 383L244 0H100L236 636L384 656L337 434H343Q381 434 414 458T467 520T487 596Q487
642 455 673T355 704Q294 704 236 677T142 594T105 461Q105 424 112 410T119 393Q66 393 39 414T12 485Q12 553 63 614T198 712T375 750Q445 750 493 728T564 670T588 591Q588 545 562 502T488 432Q548 421 577 377T606 271Q606 214 585 147T514 32T387 -17Q347
-17 318 -1Z" />
<glyph unicode="C" glyph-name="C" horiz-adv-x="497" d="M125 -16T72 41T19 230Q19 335 54 456T168 663T368 750Q443 750 489 717T535 616Q535 573 518 549T465 524Q429 524 408 550Q426 559 440 586T454 642Q454 669 440 686T393 703Q340 703 292 631T215 448T185
236Q185 160 211 120T305 80Q364 80 414 106T500 180L523 170Q498 107 449 65T344 4T238 -16Q125 -16 72 41Z" />
<glyph unicode="D" glyph-name="D" horiz-adv-x="663" d="M308 -13T246 40L238 0H94L230 636L378 656L258 95Q286 75 315 75Q372 75 415 141T483 309T507 515Q507 613 469 658T361 704Q286 704 227 675T133 590T99 461Q99 424 106 410T113 393Q61 393 34 415T6
486Q6 554 57 615T193 713T378 750Q515 750 580 669T645 462Q645 348 607 238T504 57T368 -13Q308 -13 246 40Z" />
<glyph unicode="E" glyph-name="E" horiz-adv-x="459" d="M100 -18T54 32T7 158Q7 212 29 266T94 362T192 417Q161 439 146 470T131 537Q131 589 159 639T238 720T350 752Q413 752 453 719T493 627Q493 583 471 553T419 523Q392 523 372 550Q390 556 403 583T416
637Q416 666 400 679T361 693Q332 693 309 673T272 620T259 552Q259 504 284 468T360 418Q309 407 268 368T204 278T181 179Q181 134 204 106T276 78Q326 78 380 105T461 180L484 170Q445 84 364 33T191 -18Q100 -18 54 32Z" />
<glyph unicode="F" glyph-name="F" horiz-adv-x="459" d="M232 668Q169 666 136 620T102 461Q102 424 109 410T116 393Q62 393 36 415T9 490Q9 561 44 619T155 714T350 750Q374 750 414 745Q486 738 516 738Q569 738 606 750Q603 741 595 711T567 659T511 630Q452
630 371 649L329 450H475L459 376H313L232 0H88L232 668Z" />
<glyph unicode="G" glyph-name="G" horiz-adv-x="578" d="M158 -207T114 -170T69 -71Q69 -33 87 -1T136 49T204 68Q242 68 265 49T289 -1Q289 -25 278 -39Q269 -27 254 -20T221 -13Q191 -13 172 -33T153 -85Q153 -117 171 -137T218 -157Q253 -157 278 -126T316
-34L366 187H362Q335 149 297 129T212 109Q154 109 110 140T43 228T19 362Q19 472 67 562T199 705T384 757Q469 757 518 720T568 619Q568 576 547 550T492 524Q473 524 457 532T429 555Q447 567 459 593T472 647Q472 677 455 693T405 710Q347 710 293 659T206 524T173
350Q173 275 197 236T266 196Q320 196 361 253T428 419L546 418L473 82Q441 -67 383 -137T231 -207Q158 -207 114 -170Z" />
<glyph unicode="H" glyph-name="H" horiz-adv-x="665" d="M245 680Q178 652 142 596T105 461Q105 424 112 410T119 393Q65 393 39 415T12 490Q12 554 64 614T199 712T363 750Q377 750 403 748L339 450H486L550 748H694L535 0H391L471 376H324L244 0H100L245 680Z" />
<glyph unicode="I" glyph-name="I" horiz-adv-x="375" d="M239 679Q172 652 136 597T99 461Q99 424 106 410T113 393Q59 393 33 415T6 490Q6 554 58 614T193 712T357 750Q371 750 397 748L238 0H94L239 679Z" />
<glyph unicode="J" glyph-name="J" horiz-adv-x="536" d="M94 -207T56 -169T17 -66Q17 -12 50 28T139 68Q182 68 209 56T237 1Q237 -17 231 -39Q213 -24 200 -19T171 -13Q138 -13 120 -35T101 -87Q101 -122 122 -139T169 -157Q193 -157 209 -148T239 -112T264
-34L421 680Q354 653 317 597T280 461Q280 424 287 410T294 393Q240 393 214 415T187 490Q187 554 239 614T374 712T538 750H578L428 40Q402 -83 342 -145T165 -207Q94 -207 56 -169Z" />
<glyph unicode="K" glyph-name="K" horiz-adv-x="601" d="M358 -17T358 50Q358 72 364 100T383 174Q397 221 404 254T411 313Q411 381 351 381Q334 381 318 377L238 0H94L239 680Q172 652 136 596T99 461Q99 424 106 410T113 393Q59 393 33 415T6 490Q6 554 58
614T193 712T357 750Q371 750 397 748L332 442L435 580Q558 746 559 745H664L386 425L421 426Q489 426 517 398T545 319Q545 290 538 258T518 177Q510 146 503 116T496 66Q496 43 506 25T535 0Q474 -17 436 -17Q358 -17 358 50Z" />
<glyph unicode="L" glyph-name="L" horiz-adv-x="379" d="M514 -250T471 -225T360 -146Q310 -106 275 -82T198 -40T113 -23Q98 -23 90 -24L239 669Q172 642 136 587T99 451Q99 414 106 400T113 383Q59 383 33 405T6 480Q6 544 58 604T193 702T357 740Q371 740
397 738L243 20Q271 13 300 0T372 -37Q437 -72 483 -90T579 -109Q624 -109 663 -93Q655 -166 628 -208T559 -250Q514 -250 471 -225Z" />
<glyph unicode="M" glyph-name="M" horiz-adv-x="787" d="M321 687Q245 662 204 605T162 462Q162 424 169 410T176 393Q69 393 69 484Q69 546 116 608T238 710T387 750Q424 750 463 736L440 209L660 736H804L699 0H555L619 449L431 0H294L314 451L147 0H67L321 687Z" />
<glyph unicode="N" glyph-name="N" horiz-adv-x="668" d="M243 685Q175 661 140 610T104 485Q104 453 111 427T131 383Q67 383 37 409T6 491Q6 561 47 621T158 718T310 754Q333 754 350 751T389 740L509 205L621 748H718L555 0H417L301 496L187 0H92L243 685Z" />
<glyph unicode="O" glyph-name="O" horiz-adv-x="665" d="M203 -6T156 42T108 195Q108 284 140 395T233 585T379 664Q409 664 431 656Q387 630 347 549T281 368T256 191Q256 137 270 106T314 75Q363 75 411 145T491 323T523 529Q523 591 513 628T474 685T395 704Q318
704 252 673T147 583T107 447Q107 420 112 408T117 393Q67 393 42 413T16 477Q16 546 72 609T222 711T419 750Q544 750 600 682T656 494Q656 387 616 271T493 75T287 -6Q203 -6 156 42Z" />
<glyph unicode="P" glyph-name="P" horiz-adv-x="573" d="M230 636L378 656L307 322Q355 326 395 364T459 458T482 568Q482 628 451 666T358 704Q236 704 168 640T99 461Q99 424 106 410T113 393Q59 393 33 415T6 490Q6 554 58 614T193 712T357 750Q436 750 489
723T567 652T593 553Q593 488 558 426T456 325T304 285H299L238 0H94L230 636Z" />
<glyph unicode="Q" glyph-name="Q" horiz-adv-x="665" d="M468 -113T443 -97T406 -56T380 8Q335 -6 287 -6Q203 -6 156 42T108 195Q108 284 140 395T233 585T379 664Q409 664 431 656Q387 630 347 549T281 368T256 191V173Q256 156 258 148Q294 157 320 157Q365
157 400 130Q451 196 487 309T523 529Q523 591 513 628T474 685T395 704Q318 704 252 673T147 583T107 447Q107 420 112 408T117 393Q67 393 42 413T16 477Q16 546 72 609T222 711T419 750Q544 750 600 682T656 494Q656 420 635 336T571 175T465 52Q491 13 519
-8T590 -29Q596 -29 612 -27Q593 -76 569 -94T509 -113Q468 -113 443 -97ZM336 75T352 86Q332 120 295 120Q279 120 266 116Q280 75 314 75Q336 75 352 86Z" />
<glyph unicode="R" glyph-name="R" horiz-adv-x="601" d="M358 -17T358 50Q358 72 364 100T383 174Q397 221 404 254T411 313Q411 381 351 381Q335 381 318 377L238 0H94L230 636L378 656L329 425H337Q376 425 409 452T460 519T479 599Q479 645 452 674T369 704Q288
704 227 675T133 591T99 461Q99 424 106 410T113 393Q59 393 33 415T6 490Q6 554 58 614T193 712T357 750Q432 750 483 728T559 670T584 590Q584 543 555 496T476 419Q514 408 529 383T545 319Q545 290 538 258T518 177Q510 146 503 116T496 66Q496 43 506 25T535
0Q474 -17 436 -17Q358 -17 358 50Z" />
<glyph unicode="S" glyph-name="S" horiz-adv-x="570" d="M182 -18T134 4T60 65T34 157Q34 201 52 237T102 294T172 315Q207 315 231 298T261 249Q209 249 178 222T147 147Q147 104 173 78T242 52Q295 52 329 87T364 177Q364 224 338 266T260 368Q206 430 179
474T151 572Q151 624 180 665T260 731T375 755Q456 755 504 717T553 615Q553 573 532 547T477 521Q439 521 416 552Q435 566 446 589T457 637Q457 669 438 688T386 707Q346 707 321 679T295 606Q295 566 318 532T390 443Q430 400 454 369T496 298T514 210Q514 146
479 94T382 12T245 -18Q182 -18 134 4Z" />
<glyph unicode="T" glyph-name="T" horiz-adv-x="481" d="M299 662H287Q198 662 149 618T99 460Q99 423 106 409T113 392Q59 392 33 414T6 489Q6 560 41 618T152 713T347 749Q413 749 489 737Q553 726 603 726Q667 726 719 747Q717 682 686 651T594 620Q562 620
530 625T439 642L301 0H157L299 662Z" />
<glyph unicode="U" glyph-name="U" horiz-adv-x="716" d="M256 -7T206 41T155 185Q155 232 169 290L271 696Q185 673 137 615T89 486Q89 437 115 391Q58 391 27 419T-5 498Q-5 563 47 622T187 718T371 754Q405 754 427 749L305 287Q288 224 288 179Q288 84 366
84Q478 84 521 290L621 752H762L665 290Q633 143 555 68T355 -7Q256 -7 206 41Z" />
<glyph unicode="V" glyph-name="V" horiz-adv-x="615" d="M248 683Q177 656 138 600T99 461Q99 424 106 410T113 393Q59 393 33 415T6 490Q6 554 58 614T193 712T357 750Q371 750 397 748L406 133L616 745H686L408 0H264L248 683Z" />
<glyph unicode="W" glyph-name="W" horiz-adv-x="962" d="M248 683Q177 656 138 600T99 461Q99 424 106 410T113 393Q59 393 33 415T6 490Q6 554 58 614T193 712T357 750Q371 750 397 748L406 133L616 745H743L752 133L962 745H1032L754 0H610L598 509L408 0H264L248
683Z" />
<glyph unicode="X" glyph-name="X" horiz-adv-x="620" d="M322 332L248 683Q177 656 138 600T99 461Q99 424 106 410T113 393Q59 393 33 415T6 490Q6 554 58 614T193 712T357 750Q371 750 397 748L440 540L556 745H626L458 454L552 0H393L340 250L195 0H134L322 332Z" />
<glyph unicode="Y" glyph-name="Y" horiz-adv-x="620" d="M344 308L248 683Q177 656 138 600T99 461Q99 424 106 410T113 393Q59 393 33 415T6 490Q6 554 58 614T193 712T357 750Q371 750 397 748L484 390L632 745H698L504 308L438 0H278L344 308Z" />
<glyph unicode="Z" glyph-name="Z" horiz-adv-x="542" d="M361 696Q340 696 327 697L271 698Q179 698 179 676Q185 676 190 668T196 644Q196 614 178 601T137 587Q110 587 98 604T86 646Q86 687 119 718T209 750H552L207 65Q235 65 250 64L303 63Q345 63 371 67T407
85Q400 85 395 92T389 116Q389 146 407 160T449 174Q475 174 487 157T500 116Q500 90 484 63T439 18T372 0H11L361 696Z" />
<glyph unicode="[" glyph-name="bracketleft" horiz-adv-x="400" d="M203 752H416L405 695H294L107 -183H218L206 -240H-7L203 752Z" />
<glyph unicode="\" glyph-name="backslash" horiz-adv-x="362" d="M42 750H114L326 -250H254L42 750Z" />
<glyph unicode="]" glyph-name="bracketright" horiz-adv-x="400" d="M-48 -183H63L250 695H139L150 752H364L154 -240H-60L-48 -183Z" />
<glyph unicode="^" glyph-name="asciicircum" horiz-adv-x="421" d="M262 750H283L343 561H311L251 641L94 561H50L262 750Z" />
<glyph unicode="_" glyph-name="underscore" horiz-adv-x="444" d="M54 79H404L387 0H36L54 79Z" />
<glyph unicode="`" glyph-name="grave" horiz-adv-x="201" d="M24 750H129L158 561H103L24 750Z" />
<glyph unicode="a" glyph-name="a" horiz-adv-x="526" d="M63 -6T25 33T-13 155Q-13 229 16 310T104 448T244 505Q285 505 305 491T325 454V447L336 500H480L408 160Q404 145 404 128Q404 85 445 85Q473 85 493 111T526 179H568Q531 71 477 33T367 -6Q325 -6 300
17T269 86Q240 45 205 20T120 -6Q63 -6 25 33ZM210 91T234 114T268 179L316 405Q316 418 306 430T275 443Q235 443 203 397T153 285T135 169Q135 119 149 105T185 91Q210 91 234 114Z" />
<glyph unicode="b" glyph-name="b" horiz-adv-x="444" d="M65 -6T29 27T-7 122Q-7 152 0 179L107 680L255 700L207 475Q235 492 253 497T289 503Q407 503 407 332Q407 263 381 185T293 50T133 -6Q65 -6 29 27ZM220 91T247 129T290 225T306 336Q306 376 292 404T253
432Q238 432 220 428T194 414L139 160Q136 148 136 137Q136 91 189 91Q220 91 247 129Z" />
<glyph unicode="c" glyph-name="c" horiz-adv-x="384" d="M69 -6T28 32T-13 153Q-13 222 14 305T102 448T256 509Q316 509 341 483T367 417Q367 382 352 363T314 344Q297 344 279 356Q291 389 291 415Q291 434 284 445T263 456Q233 456 203 407T154 288T135 162Q135
113 152 96T207 78Q261 78 299 103T384 179H418Q307 -6 143 -6Q69 -6 28 32Z" />
<glyph unicode="d" glyph-name="d" horiz-adv-x="525" d="M63 -6T25 33T-13 155Q-13 229 16 310T104 448T244 505Q285 505 305 491T325 454V450L374 680L522 700L407 160Q403 145 403 128Q403 108 412 100T444 91Q472 91 492 115T525 179H567Q506 0 366 0Q325
0 300 22T268 86Q242 46 206 20T120 -6Q63 -6 25 33ZM209 91T233 113T267 174V179L316 408Q307 443 275 443Q235 443 203 397T153 285T135 169Q135 119 149 105T185 91Q209 91 233 113Z" />
<glyph unicode="e" glyph-name="e" horiz-adv-x="384" d="M69 -6T28 32T-13 153Q-13 222 14 305T102 448T257 509Q367 509 367 413Q367 357 335 310T250 235T137 202Q135 172 135 162Q135 113 152 96T207 78Q261 78 299 103T384 179H418Q307 -6 143 -6Q69 -6 28
32ZM182 252T215 276T269 337T290 415Q290 456 265 456Q229 456 195 393T145 250Q182 252 215 276Z" />
<glyph unicode="f" glyph-name="f" horiz-adv-x="267" d="M-137 -250T-172 -220T-208 -142Q-208 -99 -186 -71T-129 -27T-36 8L85 579Q105 675 155 712T267 749Q314 749 349 719T385 641Q385 618 382 600H335Q337 622 337 627Q337 643 326 652T299 661Q278 661
258 643T229 579L212 500H285L278 460H204L89 -80Q69 -177 20 -213T-90 -250Q-137 -250 -172 -220ZM-73 -161T-56 -83L-43 -25Q-96 -43 -124 -66T-153 -128Q-153 -140 -141 -150T-113 -161Q-73 -161 -56 -83Z" />
<glyph unicode="g" glyph-name="g" horiz-adv-x="507" d="M129 -250T97 -225T65 -153Q65 -96 111 -62T228 -4L240 49Q189 -6 120 -6Q63 -6 25 33T-13 155Q-13 229 16 310T104 448T244 505Q285 505 305 491T325 454V448L336 500H480L381 36Q429 52 458 84T507 179H549Q522
90 476 49T372 -8L357 -80Q337 -177 288 -213T177 -250Q129 -250 97 -225ZM208 91T232 112T265 169L316 406Q316 418 306 430T275 443Q235 443 203 397T153 285T135 169Q135 119 149 105T185 91Q208 91 232 112ZM171 -172T187 -149T212 -83L218 -54Q120 -90 120
-139Q120 -152 129 -162T154 -172Q171 -172 187 -149Z" />
<glyph unicode="h" glyph-name="h" horiz-adv-x="505" d="M300 -6T272 26T243 107Q243 128 248 154T258 206T266 238Q274 273 281 307T288 362Q288 413 252 413Q226 413 206 388T174 321L106 0H-38L107 680L255 700L201 448Q251 504 318 504Q369 504 399 476T429
391Q429 362 422 327T402 240Q394 209 388 180T381 133Q381 113 390 102T421 91Q451 91 469 112T505 179H547Q510 69 462 32T361 -6Q300 -6 272 26Z" />
<glyph unicode="i" glyph-name="i" horiz-adv-x="267" d="M134 554T111 577T88 633Q88 666 111 689T167 713Q200 713 223 690T247 633Q247 600 224 577T167 554Q134 554 111 577ZM51 -6T22 24T-8 114Q-8 139 0 179L68 500H212L140 160Q136 145 136 128Q136 108
145 100T177 91Q206 91 231 115T267 179H309Q272 71 214 33T99 -6Q51 -6 22 24Z" />
<glyph unicode="j" glyph-name="j" horiz-adv-x="240" d="M126 555T103 578T80 634Q80 667 103 690T159 714Q192 714 215 691T239 634Q239 601 216 578T159 555Q126 555 103 578ZM-138 -250T-170 -225T-202 -153Q-202 -56 -38 -4L69 500H213L114 36Q162 52 191
84T240 179H282Q255 90 209 49T105 -8L90 -80Q70 -177 21 -213T-90 -250Q-138 -250 -170 -225ZM-96 -172T-80 -149T-55 -83L-49 -54Q-147 -90 -147 -139Q-147 -152 -138 -162T-113 -172Q-96 -172 -80 -149Z" />
<glyph unicode="k" glyph-name="k" horiz-adv-x="518" d="M314 -6T282 23T250 108Q250 132 256 160L264 199Q268 216 268 236Q268 284 232 284Q216 284 199 275T158 247L106 0H-38L107 680L255 700L180 348L373 500H472L272 361Q287 365 305 365Q359 365 387 332T415
248Q415 227 411 210L400 160Q395 142 395 128Q395 91 434 91Q464 91 482 112T518 179H560Q498 -6 376 -6Q314 -6 282 23Z" />
<glyph unicode="l" glyph-name="l" horiz-adv-x="267" d="M51 -6T22 24T-8 114Q-8 139 0 179L107 680L255 700L140 160Q136 145 136 128Q136 108 145 100T177 91Q206 91 231 115T267 179H309Q272 71 214 33T99 -6Q51 -6 22 24Z" />
<glyph unicode="m" glyph-name="m" horiz-adv-x="752" d="M547 -6T519 26T490 107Q490 128 495 154T505 206T513 238Q521 273 528 307T535 362Q535 413 499 413Q473 413 453 388T421 321L353 0H209L282 345Q285 357 285 370Q285 414 255 414Q227 414 207 389T174
321L106 0H-38L68 500H212L201 448Q252 505 323 505Q411 505 426 419Q481 504 565 504Q616 504 646 476T676 391Q676 362 669 327T649 240Q641 209 635 180T628 133Q628 113 637 102T668 91Q698 91 716 112T752 179H794Q757 69 709 32T608 -6Q547 -6 519 26Z" />
<glyph unicode="n" glyph-name="n" horiz-adv-x="505" d="M300 -6T272 26T243 107Q243 128 248 154T258 206T266 238Q274 273 281 307T288 362Q288 413 252 413Q226 413 206 388T174 321L106 0H-38L68 500H212L201 448Q251 504 318 504Q369 504 399 476T429 391Q429
362 422 327T402 240Q394 209 388 180T381 133Q381 113 390 102T421 91Q451 91 469 112T505 179H547Q510 69 462 32T361 -6Q300 -6 272 26Z" />
<glyph unicode="o" glyph-name="o" horiz-adv-x="439" d="M72 -4T29 34T-14 154Q-14 222 14 305T104 448T260 509Q388 509 388 349V348Q391 347 399 347Q432 347 475 364T553 407L562 380Q533 349 487 328T385 297Q377 206 344 138T259 33T146 -4Q72 -4 29 34ZM210
86T234 113T276 188T302 294Q275 300 275 336Q275 377 306 390Q304 423 296 435T268 448Q235 448 204 400T154 285T135 167Q135 119 146 103T186 86Q210 86 234 113Z" />
<glyph unicode="p" glyph-name="p" horiz-adv-x="468" d="M76 537H220L204 462Q254 505 321 505Q377 505 410 468T443 347Q443 268 420 188T342 51T197 -6Q133 -6 112 30L60 -214L-91 -250L76 537ZM214 81T245 126T291 233T306 350Q306 433 256 433Q238 433 220
420T187 384L128 104Q136 81 166 81Q214 81 245 126Z" />
<glyph unicode="q" glyph-name="q" horiz-adv-x="486" d="M239 49Q188 -6 120 -6Q63 -6 25 33T-13 155Q-13 229 16 310T104 448T244 505Q285 505 305 491T325 454V452L335 500H479L327 -214L176 -250L239 49ZM207 91T229 110T263 162L316 409Q308 443 275 443Q235
443 203 397T153 285T135 169Q135 119 149 105T185 91Q207 91 229 110Z" />
<glyph unicode="r" glyph-name="r" horiz-adv-x="376" d="M68 500H212L199 438Q233 468 260 484T320 500Q352 500 370 478T389 425Q389 396 370 374T317 352Q295 352 288 362T276 393Q273 406 270 412T259 418Q238 418 224 410T186 380L106 0H-38L68 500Z" />
<glyph unicode="s" glyph-name="s" horiz-adv-x="382" d="M66 -6T33 12T-16 60T-32 122Q-32 155 -17 179T21 215Q60 285 89 356T144 511L292 531Q297 403 309 254Q314 194 314 167Q314 144 310 129Q357 156 382 179H424Q360 105 271 54Q242 23 200 9T114 -6Q66
-6 33 12ZM119 73T144 95T169 166Q169 196 163 250Q153 364 150 403Q126 324 69 214Q92 202 92 179Q92 160 80 145T48 130Q27 130 21 143Q21 107 35 90T82 73Q119 73 144 95Z" />
<glyph unicode="t" glyph-name="t" horiz-adv-x="267" d="M51 -6T22 24T-8 114Q-8 139 0 179L60 460H27L35 500H68L98 638L246 658L212 500H272L264 460H204L140 160Q136 145 136 128Q136 108 145 100T177 91Q206 91 231 115T267 179H309Q272 71 214 33T99 -6Q51
-6 22 24Z" />
<glyph unicode="u" glyph-name="u" horiz-adv-x="505" d="M51 -6T22 24T-8 114Q-8 139 0 179L68 500H212L140 160Q137 145 137 132Q137 91 167 91Q195 91 215 114T247 179L315 500H459L387 160Q383 145 383 128Q383 108 392 100T424 91Q452 91 472 115T505 179H547Q510
71 456 33T346 -6Q303 -6 278 18T247 89Q213 34 176 14T99 -6Q51 -6 22 24Z" />
<glyph unicode="v" glyph-name="v" horiz-adv-x="414" d="M56 -6T24 23T-9 112Q-9 136 -4 160L68 500H212L140 160Q135 135 135 124Q135 91 169 91Q215 91 254 149T318 287T342 425Q340 420 329 418T310 415Q293 415 284 431T274 466Q274 490 289 505T336 520Q369
520 384 496T399 433Q399 343 368 241T273 66T114 -6Q56 -6 24 23Z" />
<glyph unicode="w" glyph-name="w" horiz-adv-x="661" d="M51 -6T22 24T-8 114Q-8 139 0 179L68 500H212L140 160Q137 148 137 135Q137 91 167 91Q195 91 215 114T247 179L315 500H459L387 160Q382 135 382 124Q382 91 416 91Q462 91 501 149T565 287T589 425Q587
420 576 418T557 415Q540 415 531 431T521 466Q521 490 536 505T583 520Q616 520 631 496T646 433Q646 343 615 241T520 66T361 -6Q312 -6 281 15T241 78Q185 -6 99 -6Q51 -6 22 24Z" />
<glyph unicode="x" glyph-name="x" horiz-adv-x="522" d="M314 -6T284 36T238 168L100 0H28L230 228L214 340Q206 389 198 406T176 423Q156 423 131 396T83 313T42 179H0Q29 315 86 410T236 505Q290 505 314 470T344 386L353 310Q396 358 417 392T440 454Q426
452 423 452Q398 452 387 467T376 508Q376 533 395 545T444 557Q470 557 485 530T500 466Q500 422 470 378T361 248L370 178Q376 130 390 111T432 91Q461 91 486 115T522 179H564Q528 75 472 35T360 -6Q314 -6 284 36Z" />
<glyph unicode="y" glyph-name="y" horiz-adv-x="486" d="M108 -250T76 -225T44 -153Q44 -96 90 -62T207 -4L219 50Q190 18 160 6T99 -6Q51 -6 22 24T-8 114Q-8 139 0 179L68 500H212L140 160Q137 148 137 135Q137 91 167 91Q193 91 213 113T245 173L315 500H459L360
36Q408 52 437 84T486 179H528Q501 90 455 49T351 -8L336 -80Q316 -177 267 -213T156 -250Q108 -250 76 -225ZM150 -172T166 -149T191 -83L197 -54Q99 -90 99 -139Q99 -152 108 -162T133 -172Q150 -172 166 -149Z" />
<glyph unicode="z" glyph-name="z" horiz-adv-x="428" d="M255 446H199Q171 446 158 443T144 430Q144 428 149 426T155 408Q155 382 139 369T101 355Q82 355 69 366T55 399Q55 420 69 444T110 484T171 500H428L183 77Q189 77 205 75Q239 71 259 71Q302 71 306
91Q297 92 292 97T287 112Q287 128 302 141T343 155Q365 155 376 142T387 107Q387 83 372 58T329 17T265 0H0L255 446Z" />
<glyph unicode="{" glyph-name="braceleft" horiz-adv-x="352" d="M124 -250T85 -218T46 -131Q46 -102 55 -64T82 33Q100 94 109 130T118 194Q118 214 109 222T77 230H45L56 281H87Q122 281 138 308T156 402Q162 539 181 613T242 720T357 752H400L392 702Q341
702 319 682T285 598T260 381Q256 330 235 305T161 256Q192 242 204 225T216 178Q216 156 211 128T192 50Q178 -2 171 -39T164 -107Q164 -150 180 -175T228 -205L218 -250H189Q124 -250 85 -218Z" />
<glyph unicode="|" glyph-name="bar" horiz-adv-x="532" d="M219 751H312V-250H219V751Z" />
<glyph unicode="}" glyph-name="braceright" horiz-adv-x="352" d="M-56 -200Q-6 -200 16 -180T51 -96T75 121Q79 172 100 197T175 246Q144 260 132 277T119 324Q119 347 124 374T143 452Q158 509 165 543T172 609Q172 652 155 677T107 707L117 752H146Q212 752
250 720T289 633Q289 604 280 566T253 469Q234 402 226 369T218 308Q218 288 227 280T259 272H290L280 221H248Q213 221 197 194T179 100Q173 -38 154 -112T93 -218T-22 -250H-65L-56 -200Z" />
<glyph unicode="~" glyph-name="asciitilde" horiz-adv-x="431" d="M266 569T245 574T197 589Q174 597 157 601T121 606Q84 606 55 580L49 582Q73 630 116 655T216 680Q241 680 262 676T308 662Q351 647 381 647Q421 647 444 670L450 669Q445 646 421 623T361
584T289 569Q266 569 245 574Z" />
<glyph unicode="&#xa0;" glyph-name="uni00A0" horiz-adv-x="217" />
<glyph unicode="&#xa1;" glyph-name="exclamdown" horiz-adv-x="219" d="M120 354T97 377T74 433Q74 466 97 489T153 513Q186 513 209 490T233 433Q233 400 210 377T153 354Q120 354 97 377ZM82 276H167L91 -224L-63 -245L82 276Z" />
<glyph unicode="&#xa2;" glyph-name="cent" horiz-adv-x="384" d="M358 607T388 582T419 513Q419 478 401 455T356 431Q343 431 331 437T311 453Q318 465 323 483T328 518Q328 537 319 546T291 555L205 183Q221 181 229 181Q260 181 285 192T333 230Q341 210 341
191Q341 147 303 121T199 94H185L157 -27H107L136 102Q75 119 42 168T8 293Q8 368 40 435T128 547T251 604L277 718H328L303 608Q358 607 388 582ZM127 231T159 203L236 540Q189 513 158 448T127 305Q127 231 159 203Z" />
<glyph unicode="&#xa3;" glyph-name="sterling" horiz-adv-x="455" d="M479 164Q492 135 492 102Q492 53 454 24T351 -6Q317 -6 259 9Q221 18 199 22T149 26Q96 26 22 5L13 46Q37 60 58 97T90 182L130 369H34L48 419H141L175 576Q194 663 253 713T393 763Q448
763 481 737T515 662Q515 625 496 600T443 575Q427 575 415 583T397 602Q405 614 411 633T417 668Q417 689 410 699T389 710Q338 710 309 576L275 419H417L403 369H264L233 224Q226 191 210 169T165 131L168 127Q182 132 194 133T226 135Q258 135 302 124Q307 123
330 118T377 113Q407 113 430 125T476 165L479 164Z" />
<glyph unicode="&#xa4;" glyph-name="currency" horiz-adv-x="500" d="M69 200L125 256Q96 294 96 345Q96 397 125 435L68 492L106 528L162 472Q203 502 253 502Q304 502 342 473L398 529L434 493L379 438Q409 398 409 346Q409 296 379 255L434 200L398 164L343
219Q305 190 253 190Q201 190 161 220L105 164L69 200ZM295 246T324 275T353 346Q353 388 324 417T253 446Q211 446 182 417T153 346Q153 304 182 275T253 246Q295 246 324 275Z" />
<glyph unicode="&#xa5;" glyph-name="yen" horiz-adv-x="558" d="M183 142H84L98 192H194L208 257H109L123 307H219L107 750H271L359 389L509 750H575L379 307H510L496 257H368L354 192H485L471 142H343L313 0H153L183 142Z" />
<glyph unicode="&#xa6;" glyph-name="brokenbar" horiz-adv-x="532" d="M219 751H312V301H219V751ZM219 222H312V-250H219V222Z" />
<glyph unicode="&#xa7;" glyph-name="section" horiz-adv-x="542" d="M109 -54T59 -27T8 77Q8 131 35 165T104 200Q131 200 148 187T183 150Q138 146 120 129T102 74Q102 34 121 15T184 -4Q222 -4 243 20T264 93Q264 150 239 187T166 265Q124 302 104 329T84 398Q84
445 112 481T188 535Q183 560 183 577Q183 633 214 672T293 731T395 750Q442 750 483 731T525 655Q525 619 507 597T459 574Q437 574 422 590Q439 599 448 618T458 659Q458 682 444 697T402 713Q362 713 335 681T308 606Q308 579 319 558T347 520T396 478Q432 450
453 428T490 375T506 303Q506 242 475 195T390 136V133Q390 46 333 -4T173 -54Q109 -54 59 -27ZM403 206T403 246Q403 279 389 305T355 351T299 399Q266 424 245 443T209 486Q190 474 190 451Q190 425 208 403T265 347Q314 304 343 269T384 183Q403 206 403 246Z"
/>
<glyph unicode="&#xa8;" glyph-name="dieresis" horiz-adv-x="392" d="M91 573T74 590T56 634Q56 659 73 677T117 695Q142 695 160 677T178 634Q178 608 160 591T117 573Q91 573 74 590ZM271 573T254 590T236 634Q236 659 253 677T297 695Q322 695 340 677T358
634Q358 608 340 591T297 573Q271 573 254 590Z" />
<glyph unicode="&#xa9;" glyph-name="copyright" horiz-adv-x="587" d="M228 76T172 110T84 203T51 331Q51 401 83 460T171 553T293 587Q358 587 413 553T502 461T535 332Q535 262 502 203T414 110T293 76Q228 76 172 110ZM348 118T393 146T465 223T492 331Q492
390 466 439T394 516T295 544Q241 544 196 516T124 439T97 331Q97 272 123 223T195 146T295 118Q348 118 393 146ZM258 182T225 203T172 259T152 336Q152 378 172 411T226 464T300 484Q347 482 380 456T424 389L377 371Q371 390 365 401T343 422T302 432Q261 432
234 409T207 341Q207 296 234 265T302 234Q325 234 345 246T377 279L421 250Q400 218 368 200T298 182Q258 182 225 203Z" />
<glyph unicode="&#xaa;" glyph-name="ordfeminine" horiz-adv-x="345" d="M76 467T60 487T43 535Q43 617 79 678T195 739Q215 739 234 725L237 740H320L278 556Q277 552 276 547T275 538Q275 518 296 518H302Q308 518 311 520Q300 489 286 480T251 470Q205 470
193 510Q157 467 114 467Q76 467 60 487ZM172 512T191 538L195 556L228 699Q217 709 199 709Q178 709 160 685T132 624T121 550Q121 512 155 512Q172 512 191 538Z" />
<glyph unicode="&#xab;" glyph-name="guillemotleft" horiz-adv-x="589" d="M20 238L29 279L336 429L326 374L85 254L279 158L267 101L20 238ZM230 238L239 279L546 429L536 374L295 254L489 158L477 101L230 238Z" />
<glyph unicode="&#xac;" glyph-name="logicalnot" horiz-adv-x="444" d="M270 222H19L37 301H399L348 51H235L270 222Z" />
<glyph unicode="&#xad;" glyph-name="uni00AD" horiz-adv-x="290" d="M37 301H237L220 222H19L37 301Z" />
<glyph unicode="&#xae;" glyph-name="registered" horiz-adv-x="553" d="M211 79T155 113T67 206T34 334Q34 404 66 463T154 556T276 590Q341 590 396 556T485 464T518 335Q518 265 485 206T397 113T276 79Q211 79 155 113ZM331 121T376 149T448 226T475 334Q475
393 449 442T377 519T278 547Q224 547 179 519T107 442T80 334Q80 275 106 226T178 149T278 121Q331 121 376 149ZM288 315H222V192H176L177 483H271Q326 483 358 461T391 399Q391 372 375 351T332 322L397 197L350 190L288 315ZM274 353Q302 353 323 362T345 397Q345
421 323 431T272 442H222V353H274Z" />
<glyph unicode="&#xaf;" glyph-name="overscore" horiz-adv-x="446" d="M86 665H406L391 591H70L86 665Z" />
<glyph unicode="&#xb0;" glyph-name="degree" horiz-adv-x="314" d="M78 374T58 402T37 488Q37 547 56 596T113 673T199 702Q242 702 261 674T281 589Q281 544 263 494T212 409T133 374Q78 374 58 402ZM174 411T197 468T221 604Q221 634 216 650T196 667Q181 667
163 650T130 598T111 519Q109 495 109 476Q109 411 136 411Q174 411 197 468Z" />
<glyph unicode="&#xb1;" glyph-name="plusminus" horiz-adv-x="479" d="M201 386H59L77 465H219L249 604H329L299 465H445L428 386H281L250 242H170L201 386ZM40 191H390L373 112H22L40 191Z" />
<glyph unicode="&#xb2;" glyph-name="uni00B2" horiz-adv-x="328" d="M213 337T177 347Q135 358 116 358Q88 358 57 342H53Q50 356 50 368Q50 402 70 431T131 504Q178 554 202 591T226 675Q226 702 217 718T189 734Q170 734 158 721T146 689Q146 674 153 663T171
646L172 643Q163 635 152 630T131 625Q112 625 99 637T86 670Q86 693 100 714T141 749T206 763Q256 763 287 739T318 673Q318 632 291 599T208 520Q171 490 150 469T116 424Q129 428 150 428Q166 428 206 421Q229 416 244 416Q270 416 291 440L294 439Q301 421
301 404Q301 375 280 356T228 337Q213 337 177 347Z" />
<glyph unicode="&#xb3;" glyph-name="uni00B3" horiz-adv-x="336" d="M114 340T82 369T50 445Q50 480 69 502T118 524Q132 524 142 516T159 490Q139 485 128 470T116 431Q116 408 128 393T159 378Q188 378 206 404T224 473Q224 515 206 540T156 571V575Q197 588
221 616T245 680Q245 705 235 719T206 734Q189 734 178 721T167 688Q167 656 190 645L191 642Q167 623 148 623Q126 623 113 637T99 673Q99 710 134 736T218 763Q265 763 295 738T326 674Q326 640 301 614T234 576V572Q273 564 296 538T319 475Q319 440 298 409T241
359T164 340Q114 340 82 369Z" />
<glyph unicode="&#xb4;" glyph-name="acute" horiz-adv-x="316" d="M211 750H316L175 561H120L211 750Z" />
<glyph unicode="&#xb5;" glyph-name="uni00B5" horiz-adv-x="505" d="M-3 164L0 179L68 500H212L140 160Q137 148 137 135Q137 91 167 91Q195 91 215 114T247 179L315 500H459L387 160Q383 145 383 128Q383 108 392 100T424 91Q452 91 472 115T505 179H547Q486
0 346 0Q304 0 279 22T248 90Q192 0 105 0L78 -130L-73 -166L-3 164Z" />
<glyph unicode="&#xb6;" glyph-name="paragraph" horiz-adv-x="542" d="M222 288Q150 302 111 359T72 491Q72 555 101 614T187 711T322 749Q404 749 455 709T507 584Q507 555 499 512L372 -81H278L359 299Q341 293 316 288L239 -81H145L222 288ZM333 339Q355 339
368 343L416 570Q422 599 422 619Q422 662 399 682L327 339H333Z" />
<glyph unicode="&#xb7;" glyph-name="middot" horiz-adv-x="434" d="M176 171T148 199T120 267Q120 307 148 335T216 364Q256 364 284 336T313 267Q313 227 285 199T216 171Q176 171 148 199Z" />
<glyph unicode="&#xb8;" glyph-name="cedilla" horiz-adv-x="227" d="M75 -226T49 -214T5 -180L22 -153Q36 -167 55 -175T94 -183Q116 -183 130 -172T144 -142Q144 -126 133 -117T102 -107Q77 -107 53 -119L49 -115L106 29L149 26L112 -66Q146 -56 165 -56Q198
-56 217 -74T237 -122Q237 -150 219 -174T171 -212T105 -226Q75 -226 49 -214Z" />
<glyph unicode="&#xb9;" glyph-name="uni00B9" horiz-adv-x="229" d="M115 678Q97 673 85 673Q67 673 58 681T49 704Q49 711 52 720Q130 720 216 763L219 761L130 344H45L115 678Z" />
<glyph unicode="&#xba;" glyph-name="ordmasculine" horiz-adv-x="329" d="M85 466T64 486T42 555Q42 649 85 697T194 745Q216 745 232 739T249 721Q249 710 242 705T223 695Q216 714 197 714Q171 714 154 687T128 623T119 560Q119 537 129 528T160 519Q185 519
200 551T219 627Q204 632 204 649Q204 663 216 676T243 690Q254 690 258 686T262 671Q274 678 283 688T295 703L301 692Q293 671 285 658T262 635Q260 582 240 544T190 486T133 466Q85 466 64 486Z" />
<glyph unicode="&#xbb;" glyph-name="guillemotright" horiz-adv-x="586" d="M29 158L269 254L75 374L84 429L330 279L319 225L15 101L29 158ZM251 158L491 254L297 374L306 429L552 279L541 225L237 101L251 158Z" />
<glyph unicode="&#xbc;" glyph-name="onequarter" horiz-adv-x="749" d="M115 678Q97 673 85 673Q67 673 58 681T49 704Q49 711 52 720Q130 720 216 763L219 761L130 344H45L115 678ZM525 752H597L181 0H109L525 752ZM596 148H448L447 152Q487 218 505 268T524
364Q524 384 516 416Q532 419 551 419Q576 419 589 403T603 359Q603 324 580 279T517 195L518 192H605L650 402L739 413L691 192H729L718 148H682L651 0H564L596 148Z" />
<glyph unicode="&#xbd;" glyph-name="onehalf" horiz-adv-x="745" d="M115 678Q97 673 85 673Q67 673 58 681T49 704Q49 711 52 720Q130 720 216 763L219 761L130 344H45L115 678ZM525 752H597L181 0H109L525 752ZM630 -6T594 4Q552 15 533 15Q505 15 474 -1H470Q467
13 467 25Q467 59 487 88T548 161Q595 211 619 248T643 332Q643 359 634 375T606 391Q587 391 575 378T563 346Q563 331 570 320T588 303L589 300Q580 292 569 287T548 282Q529 282 516 294T503 327Q503 350 517 371T558 406T623 420Q673 420 704 396T735 330Q735
289 708 256T625 177Q588 147 567 126T533 81Q546 85 567 85Q583 85 623 78Q646 73 661 73Q687 73 708 97L711 96Q718 78 718 61Q718 32 697 13T645 -6Q630 -6 594 4Z" />
<glyph unicode="&#xbe;" glyph-name="threequarters" horiz-adv-x="836" d="M114 340T82 369T50 445Q50 480 69 502T118 524Q132 524 142 516T159 490Q139 485 128 470T116 431Q116 408 128 393T159 378Q188 378 206 404T224 473Q224 515 206 540T156 571V575Q197
588 221 616T245 680Q245 705 235 719T206 734Q189 734 178 721T167 688Q167 656 190 645L191 642Q167 623 148 623Q126 623 113 637T99 673Q99 710 134 736T218 763Q265 763 295 738T326 674Q326 640 301 614T234 576V572Q273 564 296 538T319 475Q319 440 298
409T241 359T164 340Q114 340 82 369ZM612 752H684L268 0H196L612 752ZM683 148H535L534 152Q574 218 592 268T611 364Q611 384 603 416Q619 419 638 419Q663 419 676 403T690 359Q690 324 667 279T604 195L605 192H692L737 402L826 413L778 192H816L805 148H769L738
0H651L683 148Z" />
<glyph unicode="&#xbf;" glyph-name="questiondown" horiz-adv-x="439" d="M259 349T236 372T213 428Q213 461 236 484T292 508Q325 508 348 485T372 428Q372 395 349 372T292 349Q259 349 236 372ZM78 -250T33 -213T-13 -110Q-13 -70 4 -38T48 19T117 77Q162
112 188 137T233 197T252 276H313Q313 229 299 192T265 128T212 64Q168 16 146 -20T124 -107Q124 -150 141 -174T191 -198Q224 -198 246 -175T268 -117Q268 -91 255 -69T220 -37V-33Q238 -17 258 -8T297 1Q329 1 348 -22T368 -85Q368 -131 341 -169T265 -228T157
-250Q78 -250 33 -213Z" />
<glyph unicode="&#xc0;" glyph-name="Agrave" horiz-adv-x="668" d="M486 1000H591L620 811H545L486 1000ZM181 -114T153 -108T105 -79T84 -8Q84 59 124 172T231 399Q181 396 152 384T114 347Q118 347 122 337T127 316Q127 298 111 288T71 277Q43 277 26 292T9
335Q9 369 35 397T109 441T213 458Q234 458 265 455Q347 585 438 667T613 750Q661 750 692 736L535 0H391L468 363Q431 380 400 388T334 399Q277 276 241 148T204 -58Q204 -96 218 -114Q181 -114 153 -108ZM535 679Q492 656 446 594T355 442Q427 428 477 407L535
679Z" />
<glyph unicode="&#xc1;" glyph-name="Aacute" horiz-adv-x="668" d="M665 1000H770L649 811H574L665 1000ZM181 -114T153 -108T105 -79T84 -8Q84 59 124 172T231 399Q181 396 152 384T114 347Q118 347 122 337T127 316Q127 298 111 288T71 277Q43 277 26 292T9
335Q9 369 35 397T109 441T213 458Q234 458 265 455Q347 585 438 667T613 750Q661 750 692 736L535 0H391L468 363Q431 380 400 388T334 399Q277 276 241 148T204 -58Q204 -96 218 -114Q181 -114 153 -108ZM535 679Q492 656 446 594T355 442Q427 428 477 407L535
679Z" />
<glyph unicode="&#xc2;" glyph-name="Acircumflex" horiz-adv-x="668" d="M683 1000H704L764 811H731L671 891L515 811H471L683 1000ZM181 -114T153 -108T105 -79T84 -8Q84 59 124 172T231 399Q181 396 152 384T114 347Q118 347 122 337T127 316Q127 298 111 288T71
277Q43 277 26 292T9 335Q9 369 35 397T109 441T213 458Q234 458 265 455Q347 585 438 667T613 750Q661 750 692 736L535 0H391L468 363Q431 380 400 388T334 399Q277 276 241 148T204 -58Q204 -96 218 -114Q181 -114 153 -108ZM535 679Q492 656 446 594T355 442Q427
428 477 407L535 679Z" />
<glyph unicode="&#xc3;" glyph-name="Atilde" horiz-adv-x="668" d="M626 819T605 824T557 839Q534 847 517 851T481 856Q444 856 415 830L409 832Q433 880 476 905T576 930Q602 930 622 926T668 912Q711 897 741 897Q781 897 804 920L810 919Q805 896 781 873T721
834T649 819Q626 819 605 824ZM181 -114T153 -108T105 -79T84 -8Q84 59 124 172T231 399Q181 396 152 384T114 347Q118 347 122 337T127 316Q127 298 111 288T71 277Q43 277 26 292T9 335Q9 369 35 397T109 441T213 458Q234 458 265 455Q347 585 438 667T613 750Q661
750 692 736L535 0H391L468 363Q431 380 400 388T334 399Q277 276 241 148T204 -58Q204 -96 218 -114Q181 -114 153 -108ZM535 679Q492 656 446 594T355 442Q427 428 477 407L535 679Z" />
<glyph unicode="&#xc4;" glyph-name="Adieresis" horiz-adv-x="668" d="M489 823T472 840T455 884Q455 909 472 927T516 945Q540 945 558 927T576 884Q576 858 558 841T516 823Q489 823 472 840ZM669 823T652 840T634 884Q634 909 652 927T695 945Q720 945 738
927T756 884Q756 858 739 841T695 823Q669 823 652 840ZM181 -114T153 -108T105 -79T84 -8Q84 59 124 172T231 399Q181 396 152 384T114 347Q118 347 122 337T127 316Q127 298 111 288T71 277Q43 277 26 292T9 335Q9 369 35 397T109 441T213 458Q234 458 265 455Q347
585 438 667T613 750Q661 750 692 736L535 0H391L468 363Q431 380 400 388T334 399Q277 276 241 148T204 -58Q204 -96 218 -114Q181 -114 153 -108ZM535 679Q492 656 446 594T355 442Q427 428 477 407L535 679Z" />
<glyph unicode="&#xc5;" glyph-name="Aring" horiz-adv-x="668" d="M567 802T548 822T529 872Q529 904 551 933T614 963Q649 963 667 942T686 886Q686 850 665 826T599 802Q567 802 548 822ZM626 837T637 849T649 883Q649 904 643 917T616 930Q592 930 581 913T569
874Q569 837 603 837Q626 837 637 849ZM181 -114T153 -108T105 -79T84 -8Q84 59 124 172T231 399Q181 396 152 384T114 347Q118 347 122 337T127 316Q127 298 111 288T71 277Q43 277 26 292T9 335Q9 369 35 397T109 441T213 458Q234 458 265 455Q347 585 438 667T613
750Q661 750 692 736L535 0H391L468 363Q431 380 400 388T334 399Q277 276 241 148T204 -58Q204 -96 218 -114Q181 -114 153 -108ZM535 679Q492 656 446 594T355 442Q427 428 477 407L535 679Z" />
<glyph unicode="&#xc6;" glyph-name="AE" horiz-adv-x="764" d="M173 -111T147 -105T102 -75T84 -1Q84 63 124 174T231 399Q182 396 154 385T114 347Q118 347 122 337T127 316Q127 299 112 288T66 277Q42 277 26 292T9 340Q9 370 36 396T108 439T204 455Q230 455
263 452Q345 584 437 667T612 751Q642 751 691 742Q715 738 741 735T792 731Q853 731 909 750Q907 744 898 711T864 659T802 640Q773 640 750 646T707 661T678 672L624 419H779L759 345H608L557 106H781L760 0H391L468 363Q398 394 333 399Q277 276 241 149T204
-57Q204 -94 211 -102T218 -113Q173 -111 147 -105ZM535 679Q491 655 444 593T353 441Q422 428 477 407L535 679Z" />
<glyph unicode="&#xc7;" glyph-name="Ccedilla" horiz-adv-x="497" d="M208 -218T185 -211T135 -190Q153 -158 175 -158Q190 -158 198 -162T218 -173Q236 -185 249 -185Q261 -185 270 -172T279 -143Q279 -127 270 -117T240 -107Q222 -107 212 -110T188 -119L225
-16Q118 -13 69 44T19 230Q19 335 54 456T168 663T368 750Q443 750 489 717T535 616Q535 573 518 549T465 524Q429 524 408 550Q426 559 440 586T454 642Q454 669 440 686T393 703Q340 703 292 631T215 448T185 236Q185 160 211 120T305 80Q364 80 414 106T500
180L523 170Q490 87 418 41T268 -14L247 -66Q281 -58 300 -58Q362 -58 362 -108Q362 -159 326 -188T242 -218Q208 -218 185 -211Z" />
<glyph unicode="&#xc8;" glyph-name="Egrave" horiz-adv-x="459" d="M252 1000H357L386 811H311L252 1000ZM100 -18T54 32T7 158Q7 212 29 266T94 362T192 417Q161 439 146 470T131 537Q131 589 159 639T238 720T350 752Q413 752 453 719T493 627Q493 583 471
553T419 523Q392 523 372 550Q390 556 403 583T416 637Q416 666 400 679T361 693Q332 693 309 673T272 620T259 552Q259 504 284 468T360 418Q309 407 268 368T204 278T181 179Q181 134 204 106T276 78Q326 78 380 105T461 180L484 170Q445 84 364 33T191 -18Q100
-18 54 32Z" />
<glyph unicode="&#xc9;" glyph-name="Eacute" horiz-adv-x="459" d="M421 1000H526L405 811H330L421 1000ZM100 -18T54 32T7 158Q7 212 29 266T94 362T192 417Q161 439 146 470T131 537Q131 589 159 639T238 720T350 752Q413 752 453 719T493 627Q493 583 471
553T419 523Q392 523 372 550Q390 556 403 583T416 637Q416 666 400 679T361 693Q332 693 309 673T272 620T259 552Q259 504 284 468T360 418Q309 407 268 368T204 278T181 179Q181 134 204 106T276 78Q326 78 380 105T461 180L484 170Q445 84 364 33T191 -18Q100
-18 54 32Z" />
<glyph unicode="&#xca;" glyph-name="Ecircumflex" horiz-adv-x="459" d="M414 1000H435L495 811H463L403 891L246 811H202L414 1000ZM100 -18T54 32T7 158Q7 212 29 266T94 362T192 417Q161 439 146 470T131 537Q131 589 159 639T238 720T350 752Q413 752 453
719T493 627Q493 583 471 553T419 523Q392 523 372 550Q390 556 403 583T416 637Q416 666 400 679T361 693Q332 693 309 673T272 620T259 552Q259 504 284 468T360 418Q309 407 268 368T204 278T181 179Q181 134 204 106T276 78Q326 78 380 105T461 180L484 170Q445
84 364 33T191 -18Q100 -18 54 32Z" />
<glyph unicode="&#xcb;" glyph-name="Edieresis" horiz-adv-x="459" d="M273 823T256 840T238 884Q238 909 255 927T299 945Q324 945 342 927T360 884Q360 858 342 841T299 823Q273 823 256 840ZM453 823T436 840T418 884Q418 909 435 927T479 945Q504 945 522
927T540 884Q540 858 522 841T479 823Q453 823 436 840ZM100 -18T54 32T7 158Q7 212 29 266T94 362T192 417Q161 439 146 470T131 537Q131 589 159 639T238 720T350 752Q413 752 453 719T493 627Q493 583 471 553T419 523Q392 523 372 550Q390 556 403 583T416
637Q416 666 400 679T361 693Q332 693 309 673T272 620T259 552Q259 504 284 468T360 418Q309 407 268 368T204 278T181 179Q181 134 204 106T276 78Q326 78 380 105T461 180L484 170Q445 84 364 33T191 -18Q100 -18 54 32Z" />
<glyph unicode="&#xcc;" glyph-name="Igrave" horiz-adv-x="375" d="M215 1000H320L349 811H274L215 1000ZM239 679Q172 652 136 597T99 461Q99 424 106 410T113 393Q59 393 33 415T6 490Q6 554 58 614T193 712T357 750Q371 750 397 748L238 0H94L239 679Z" />
<glyph unicode="&#xcd;" glyph-name="Iacute" horiz-adv-x="375" d="M384 1000H489L369 811H293L384 1000ZM239 679Q172 652 136 597T99 461Q99 424 106 410T113 393Q59 393 33 415T6 490Q6 554 58 614T193 712T357 750Q371 750 397 748L238 0H94L239 679Z" />
<glyph unicode="&#xce;" glyph-name="Icircumflex" horiz-adv-x="375" d="M382 1000H403L463 811H432L372 891L214 811H170L382 1000ZM239 679Q172 652 136 597T99 461Q99 424 106 410T113 393Q59 393 33 415T6 490Q6 554 58 614T193 712T357 750Q371 750 397
748L238 0H94L239 679Z" />
<glyph unicode="&#xcf;" glyph-name="Idieresis" horiz-adv-x="375" d="M221 823T204 840T187 884Q187 909 204 927T248 945Q273 945 291 927T309 884Q309 858 291 841T248 823Q221 823 204 840ZM402 823T385 840T367 884Q367 909 384 927T428 945Q452 945 470
927T489 884Q489 858 471 841T428 823Q402 823 385 840ZM239 679Q172 652 136 597T99 461Q99 424 106 410T113 393Q59 393 33 415T6 490Q6 554 58 614T193 712T357 750Q371 750 397 748L238 0H94L239 679Z" />
<glyph unicode="&#xd0;" glyph-name="Eth" horiz-adv-x="663" d="M308 -13T246 40L238 0H94L168 345H129L149 419H184L230 636L378 656L327 419H406L386 345H311L258 95Q286 75 315 75Q371 75 415 141T483 308T507 508Q507 576 496 617T455 681T369 704Q288 704
227 675T133 591T99 461Q99 424 106 410T113 393Q59 393 33 415T6 490Q6 554 58 614T193 712T357 750Q645 750 645 480Q645 353 607 239T504 56T368 -13Q308 -13 246 40Z" />
<glyph unicode="&#xd1;" glyph-name="Ntilde" horiz-adv-x="686" d="M525 819T504 824T456 839Q433 847 416 851T380 856Q343 856 314 830L308 832Q332 880 375 905T475 930Q500 930 521 926T567 912Q610 897 640 897Q680 897 703 920L709 919Q704 896 680 873T620
834T548 819Q525 819 504 824ZM243 685Q175 661 140 610T104 485Q104 453 111 427T131 383Q67 383 37 409T6 491Q6 561 47 621T158 718T310 754Q333 754 350 751T389 740L509 205L621 748H718L555 0H417L301 496L187 0H92L243 685Z" />
<glyph unicode="&#xd2;" glyph-name="Ograve" horiz-adv-x="665" d="M302 1000H407L436 811H361L302 1000ZM203 -6T156 42T108 195Q108 284 140 395T233 585T379 664Q409 664 431 656Q387 630 347 549T281 368T256 191Q256 137 270 106T314 75Q363 75 411 145T491
323T523 529Q523 591 513 628T474 685T395 704Q318 704 252 673T147 583T107 447Q107 420 112 408T117 393Q67 393 42 413T16 477Q16 546 72 609T222 711T419 750Q544 750 600 682T656 494Q656 387 616 271T493 75T287 -6Q203 -6 156 42Z" />
<glyph unicode="&#xd3;" glyph-name="Oacute" horiz-adv-x="665" d="M488 1000H593L472 811H397L488 1000ZM203 -6T156 42T108 195Q108 284 140 395T233 585T379 664Q409 664 431 656Q387 630 347 549T281 368T256 191Q256 137 270 106T314 75Q363 75 411 145T491
323T523 529Q523 591 513 628T474 685T395 704Q318 704 252 673T147 583T107 447Q107 420 112 408T117 393Q67 393 42 413T16 477Q16 546 72 609T222 711T419 750Q544 750 600 682T656 494Q656 387 616 271T493 75T287 -6Q203 -6 156 42Z" />
<glyph unicode="&#xd4;" glyph-name="Ocircumflex" horiz-adv-x="665" d="M484 1000H505L565 811H533L473 891L316 811H272L484 1000ZM203 -6T156 42T108 195Q108 284 140 395T233 585T379 664Q409 664 431 656Q387 630 347 549T281 368T256 191Q256 137 270 106T314
75Q363 75 411 145T491 323T523 529Q523 591 513 628T474 685T395 704Q318 704 252 673T147 583T107 447Q107 420 112 408T117 393Q67 393 42 413T16 477Q16 546 72 609T222 711T419 750Q544 750 600 682T656 494Q656 387 616 271T493 75T287 -6Q203 -6 156 42Z"
/>
<glyph unicode="&#xd5;" glyph-name="Otilde" horiz-adv-x="665" d="M491 819T470 824T422 839Q399 847 382 851T346 856Q309 856 280 830L274 832Q298 880 341 905T441 930Q467 930 487 926T533 912Q576 897 606 897Q646 897 669 920L675 919Q670 896 646 873T586
834T514 819Q491 819 470 824ZM203 -6T156 42T108 195Q108 284 140 395T233 585T379 664Q409 664 431 656Q387 630 347 549T281 368T256 191Q256 137 270 106T314 75Q363 75 411 145T491 323T523 529Q523 591 513 628T474 685T395 704Q318 704 252 673T147 583T107
447Q107 420 112 408T117 393Q67 393 42 413T16 477Q16 546 72 609T222 711T419 750Q544 750 600 682T656 494Q656 387 616 271T493 75T287 -6Q203 -6 156 42Z" />
<glyph unicode="&#xd6;" glyph-name="Odieresis" horiz-adv-x="665" d="M323 823T306 840T288 884Q288 909 305 927T349 945Q374 945 392 927T410 884Q410 858 392 841T349 823Q323 823 306 840ZM503 823T486 840T468 884Q468 909 485 927T529 945Q554 945 572
927T590 884Q590 858 572 841T529 823Q503 823 486 840ZM203 -6T156 42T108 195Q108 284 140 395T233 585T379 664Q409 664 431 656Q387 630 347 549T281 368T256 191Q256 137 270 106T314 75Q363 75 411 145T491 323T523 529Q523 591 513 628T474 685T395 704Q318
704 252 673T147 583T107 447Q107 420 112 408T117 393Q67 393 42 413T16 477Q16 546 72 609T222 711T419 750Q544 750 600 682T656 494Q656 387 616 271T493 75T287 -6Q203 -6 156 42Z" />
<glyph unicode="&#xd7;" glyph-name="multiply" horiz-adv-x="414" d="M43 237L145 339L42 442L100 499L202 396L306 500L362 443L259 340L361 239L304 181L201 282L100 181L43 237Z" />
<glyph unicode="&#xd8;" glyph-name="Oslash" horiz-adv-x="658" d="M279 -6H277Q196 -6 150 39T104 183Q104 266 135 370T225 548T365 622Q390 622 410 615L419 656Q403 659 381 659Q306 659 243 630T141 545T103 418Q103 393 108 382T113 368Q65 368 40 386T15
446Q15 511 69 570T214 665T404 702Q420 702 428 701L439 750H491L479 694Q632 657 632 462Q632 371 600 271T499 94T332 -1L317 -71H265L279 -6ZM390 117T425 183T482 334T504 495Q504 549 496 582T466 634L351 88Q390 117 425 183ZM409 610Q368 583 331 508T270
341T247 179Q247 80 295 70L409 610Z" />
<glyph unicode="&#xd9;" glyph-name="Ugrave" horiz-adv-x="716" d="M405 1000H510L539 811H464L405 1000ZM239 -7T195 33T150 152Q150 210 165 285T215 492L232 560L265 692Q182 670 135 611T88 462Q88 424 95 410T102 393Q49 393 22 414T-5 485Q-5 554 48 615T189
713T373 750Q395 750 421 745L377 584Q322 382 304 305T286 181Q286 136 302 114T355 91Q404 91 431 111T485 205T548 439L615 748H756L690 436Q655 268 618 177T517 39T343 -7Q239 -7 195 33Z" />
<glyph unicode="&#xda;" glyph-name="Uacute" horiz-adv-x="716" d="M537 1000H642L521 811H446L537 1000ZM239 -7T195 33T150 152Q150 210 165 285T215 492L232 560L265 692Q182 670 135 611T88 462Q88 424 95 410T102 393Q49 393 22 414T-5 485Q-5 554 48 615T189
713T373 750Q395 750 421 745L377 584Q322 382 304 305T286 181Q286 136 302 114T355 91Q404 91 431 111T485 205T548 439L615 748H756L690 436Q655 268 618 177T517 39T343 -7Q239 -7 195 33Z" />
<glyph unicode="&#xdb;" glyph-name="Ucircumflex" horiz-adv-x="716" d="M570 1000H591L651 811H619L559 891L402 811H358L570 1000ZM239 -7T195 33T150 152Q150 210 165 285T215 492L232 560L265 692Q182 670 135 611T88 462Q88 424 95 410T102 393Q49 393 22
414T-5 485Q-5 554 48 615T189 713T373 750Q395 750 421 745L377 584Q322 382 304 305T286 181Q286 136 302 114T355 91Q404 91 431 111T485 205T548 439L615 748H756L690 436Q655 268 618 177T517 39T343 -7Q239 -7 195 33Z" />
<glyph unicode="&#xdc;" glyph-name="Udieresis" horiz-adv-x="716" d="M413 823T396 840T378 884Q378 909 395 927T439 945Q464 945 482 927T500 884Q500 858 482 841T439 823Q413 823 396 840ZM593 823T576 840T558 884Q558 909 575 927T619 945Q644 945 662
927T680 884Q680 858 662 841T619 823Q593 823 576 840ZM239 -7T195 33T150 152Q150 210 165 285T215 492L232 560L265 692Q182 670 135 611T88 462Q88 424 95 410T102 393Q49 393 22 414T-5 485Q-5 554 48 615T189 713T373 750Q395 750 421 745L377 584Q322 382
304 305T286 181Q286 136 302 114T355 91Q404 91 431 111T485 205T548 439L615 748H756L690 436Q655 268 618 177T517 39T343 -7Q239 -7 195 33Z" />
<glyph unicode="&#xdd;" glyph-name="Yacute" horiz-adv-x="620" d="M583 1000H688L567 811H492L583 1000ZM344 308L248 683Q177 656 138 600T99 461Q99 424 106 410T113 393Q59 393 33 415T6 490Q6 554 58 614T193 712T357 750Q371 750 397 748L484 390L632 745H698L504
308L438 0H278L344 308Z" />
<glyph unicode="&#xde;" glyph-name="Thorn" horiz-adv-x="583" d="M214 562Q158 533 129 480T99 351Q99 314 106 300T113 283Q59 283 33 305T6 380Q6 428 35 474T115 558T225 616L250 730L398 750L374 640Q482 634 537 579T593 443Q593 378 558 316T456 215T304
175H275L238 0H94L214 562ZM297 212Q348 212 390 250T457 345T482 458Q482 516 453 554T365 594L283 212H297Z" />
<glyph unicode="&#xdf;" glyph-name="germandbls" horiz-adv-x="480" d="M56 412Q86 558 144 629T292 700Q351 700 385 674T419 603Q419 545 388 483T323 380Q378 339 407 283T437 171Q437 122 415 82T348 18T240 -6Q201 -6 181 7T160 45Q160 56 165 67T179 86Q187
75 201 69T234 63Q273 63 295 101T317 193Q317 243 298 287T244 351Q260 368 281 411T317 502T333 586Q333 638 294 638Q276 638 262 620T235 558T205 434L66 -214L-85 -250L56 412Z" />
<glyph unicode="&#xe0;" glyph-name="agrave" horiz-adv-x="526" d="M216 750H321L350 561H275L216 750ZM63 -6T25 33T-13 155Q-13 229 16 310T104 448T244 505Q285 505 305 491T325 454V447L336 500H480L408 160Q404 145 404 128Q404 85 445 85Q473 85 493 111T526
179H568Q531 71 477 33T367 -6Q325 -6 300 17T269 86Q240 45 205 20T120 -6Q63 -6 25 33ZM210 91T234 114T268 179L316 405Q316 418 306 430T275 443Q235 443 203 397T153 285T135 169Q135 119 149 105T185 91Q210 91 234 114Z" />
<glyph unicode="&#xe1;" glyph-name="aacute" horiz-adv-x="526" d="M336 750H441L320 561H245L336 750ZM63 -6T25 33T-13 155Q-13 229 16 310T104 448T244 505Q285 505 305 491T325 454V447L336 500H480L408 160Q404 145 404 128Q404 85 445 85Q473 85 493 111T526
179H568Q531 71 477 33T367 -6Q325 -6 300 17T269 86Q240 45 205 20T120 -6Q63 -6 25 33ZM210 91T234 114T268 179L316 405Q316 418 306 430T275 443Q235 443 203 397T153 285T135 169Q135 119 149 105T185 91Q210 91 234 114Z" />
<glyph unicode="&#xe2;" glyph-name="acircumflex" horiz-adv-x="526" d="M368 750H389L449 561H417L357 641L200 561H156L368 750ZM63 -6T25 33T-13 155Q-13 229 16 310T104 448T244 505Q285 505 305 491T325 454V447L336 500H480L408 160Q404 145 404 128Q404
85 445 85Q473 85 493 111T526 179H568Q531 71 477 33T367 -6Q325 -6 300 17T269 86Q240 45 205 20T120 -6Q63 -6 25 33ZM210 91T234 114T268 179L316 405Q316 418 306 430T275 443Q235 443 203 397T153 285T135 169Q135 119 149 105T185 91Q210 91 234 114Z" />
<glyph unicode="&#xe3;" glyph-name="atilde" horiz-adv-x="526" d="M338 569T318 574T270 589Q241 598 226 602T193 606Q156 606 127 580L122 582Q145 630 188 655T289 680Q314 680 334 676T380 662Q403 654 419 651T454 647Q492 647 517 670L522 669Q518 646
494 623T434 584T361 569Q338 569 318 574ZM63 -6T25 33T-13 155Q-13 229 16 310T104 448T244 505Q285 505 305 491T325 454V447L336 500H480L408 160Q404 145 404 128Q404 85 445 85Q473 85 493 111T526 179H568Q531 71 477 33T367 -6Q325 -6 300 17T269 86Q240
45 205 20T120 -6Q63 -6 25 33ZM210 91T234 114T268 179L316 405Q316 418 306 430T275 443Q235 443 203 397T153 285T135 169Q135 119 149 105T185 91Q210 91 234 114Z" />
<glyph unicode="&#xe4;" glyph-name="adieresis" horiz-adv-x="526" d="M215 573T198 590T180 634Q180 659 197 677T241 695Q266 695 284 677T302 634Q302 608 284 591T241 573Q215 573 198 590ZM395 573T378 590T360 634Q360 659 377 677T421 695Q446 695 464
677T482 634Q482 608 464 591T421 573Q395 573 378 590ZM63 -6T25 33T-13 155Q-13 229 16 310T104 448T244 505Q285 505 305 491T325 454V447L336 500H480L408 160Q404 145 404 128Q404 85 445 85Q473 85 493 111T526 179H568Q531 71 477 33T367 -6Q325 -6 300
17T269 86Q240 45 205 20T120 -6Q63 -6 25 33ZM210 91T234 114T268 179L316 405Q316 418 306 430T275 443Q235 443 203 397T153 285T135 169Q135 119 149 105T185 91Q210 91 234 114Z" />
<glyph unicode="&#xe5;" glyph-name="aring" horiz-adv-x="526" d="M272 552T253 572T234 622Q234 654 256 683T319 713Q354 713 372 692T391 636Q391 600 370 576T304 552Q272 552 253 572ZM331 587T342 599T354 633Q354 654 348 667T321 680Q297 680 286 663T274
624Q274 587 308 587Q331 587 342 599ZM63 -6T25 33T-13 155Q-13 229 16 310T104 448T244 505Q285 505 305 491T325 454V447L336 500H480L408 160Q404 145 404 128Q404 85 445 85Q473 85 493 111T526 179H568Q531 71 477 33T367 -6Q325 -6 300 17T269 86Q240 45
205 20T120 -6Q63 -6 25 33ZM210 91T234 114T268 179L316 405Q316 418 306 430T275 443Q235 443 203 397T153 285T135 169Q135 119 149 105T185 91Q210 91 234 114Z" />
<glyph unicode="&#xe6;" glyph-name="ae" horiz-adv-x="650" d="M65 -6T29 23T-8 124Q-8 212 52 251T214 290Q250 290 266 286Q287 331 287 374Q287 406 272 425T226 445Q184 445 157 433T105 398L77 427Q112 462 142 479T198 500T259 505Q339 505 389 465Q448
509 524 509Q586 509 609 483T633 410Q633 356 601 310T516 235T403 202Q401 180 401 170Q401 117 416 98T461 78Q507 78 538 90T592 121T650 179H684Q572 -4 408 -4Q287 -4 261 90Q237 45 205 20T119 -6Q65 -6 29 23ZM448 252T481 276T535 336T556 412Q556 434
551 445T532 456Q495 456 462 394T410 250Q448 252 481 276ZM206 91T225 120T259 228Q252 229 242 229Q193 229 163 205T133 141Q133 112 148 102T179 91Q206 91 225 120Z" />
<glyph unicode="&#xe7;" glyph-name="ccedilla" horiz-adv-x="384" d="M151 -218T128 -211T78 -190Q96 -158 118 -158Q133 -158 141 -162T161 -173Q179 -185 192 -185Q204 -185 213 -172T222 -143Q222 -127 213 -117T183 -107Q165 -107 155 -110T131 -119L172
-4Q154 -6 143 -6Q69 -6 28 32T-13 153Q-13 222 14 305T102 448T256 509Q316 509 341 483T367 417Q367 382 352 363T314 344Q297 344 279 356Q291 389 291 415Q291 434 284 445T263 456Q233 456 203 407T154 288T135 162Q135 113 152 96T207 78Q261 78 299 103T384
179H418Q333 39 219 5L190 -66Q224 -58 243 -58Q305 -58 305 -108Q305 -159 269 -188T185 -218Q151 -218 128 -211Z" />
<glyph unicode="&#xe8;" glyph-name="egrave" horiz-adv-x="384" d="M158 750H263L292 561H217L158 750ZM69 -6T28 32T-13 153Q-13 222 14 305T102 448T257 509Q367 509 367 413Q367 357 335 310T250 235T137 202Q135 172 135 162Q135 113 152 96T207 78Q261 78
299 103T384 179H418Q307 -6 143 -6Q69 -6 28 32ZM182 252T215 276T269 337T290 415Q290 456 265 456Q229 456 195 393T145 250Q182 252 215 276Z" />
<glyph unicode="&#xe9;" glyph-name="eacute" horiz-adv-x="384" d="M314 750H419L298 561H223L314 750ZM69 -6T28 32T-13 153Q-13 222 14 305T102 448T257 509Q367 509 367 413Q367 357 335 310T250 235T137 202Q135 172 135 162Q135 113 152 96T207 78Q261 78
299 103T384 179H418Q307 -6 143 -6Q69 -6 28 32ZM182 252T215 276T269 337T290 415Q290 456 265 456Q229 456 195 393T145 250Q182 252 215 276Z" />
<glyph unicode="&#xea;" glyph-name="ecircumflex" horiz-adv-x="384" d="M317 750H338L398 561H366L306 641L149 561H105L317 750ZM69 -6T28 32T-13 153Q-13 222 14 305T102 448T257 509Q367 509 367 413Q367 357 335 310T250 235T137 202Q135 172 135 162Q135
113 152 96T207 78Q261 78 299 103T384 179H418Q307 -6 143 -6Q69 -6 28 32ZM182 252T215 276T269 337T290 415Q290 456 265 456Q229 456 195 393T145 250Q182 252 215 276Z" />
<glyph unicode="&#xeb;" glyph-name="edieresis" horiz-adv-x="384" d="M154 573T137 590T119 634Q119 659 136 677T180 695Q205 695 223 677T241 634Q241 608 223 591T180 573Q154 573 137 590ZM334 573T317 590T299 634Q299 659 316 677T360 695Q385 695 403
677T421 634Q421 608 403 591T360 573Q334 573 317 590ZM69 -6T28 32T-13 153Q-13 222 14 305T102 448T257 509Q367 509 367 413Q367 357 335 310T250 235T137 202Q135 172 135 162Q135 113 152 96T207 78Q261 78 299 103T384 179H418Q307 -6 143 -6Q69 -6 28 32ZM182
252T215 276T269 337T290 415Q290 456 265 456Q229 456 195 393T145 250Q182 252 215 276Z" />
<glyph unicode="&#xec;" glyph-name="igrave" horiz-adv-x="267" d="M56 750H161L190 561H115L56 750ZM51 -6T22 24T-8 114Q-8 139 0 179L68 500H212L140 160Q136 145 136 128Q136 108 145 100T177 91Q206 91 231 115T267 179H309Q272 71 214 33T99 -6Q51 -6 22 24Z" />
<glyph unicode="&#xed;" glyph-name="iacute" horiz-adv-x="267" d="M202 750H307L186 561H111L202 750ZM51 -6T22 24T-8 114Q-8 139 0 179L68 500H212L140 160Q136 145 136 128Q136 108 145 100T177 91Q206 91 231 115T267 179H309Q272 71 214 33T99 -6Q51 -6 22 24Z" />
<glyph unicode="&#xee;" glyph-name="icircumflex" horiz-adv-x="267" d="M213 750H234L294 561H262L202 641L45 561H1L213 750ZM51 -6T22 24T-8 114Q-8 139 0 179L68 500H212L140 160Q136 145 136 128Q136 108 145 100T177 91Q206 91 231 115T267 179H309Q272
71 214 33T99 -6Q51 -6 22 24Z" />
<glyph unicode="&#xef;" glyph-name="idieresis" horiz-adv-x="267" d="M52 573T35 590T17 634Q17 659 34 677T78 695Q103 695 121 677T139 634Q139 608 121 591T78 573Q52 573 35 590ZM222 573T205 590T187 634Q187 659 204 677T248 695Q273 695 291 677T309
634Q309 608 291 591T248 573Q222 573 205 590ZM51 -6T22 24T-8 114Q-8 139 0 179L68 500H212L140 160Q136 145 136 128Q136 108 145 100T177 91Q206 91 231 115T267 179H309Q272 71 214 33T99 -6Q51 -6 22 24Z" />
<glyph unicode="&#xf0;" glyph-name="eth" horiz-adv-x="526" d="M568 179Q507 0 367 0Q326 0 301 22T269 87Q208 -6 120 -6Q63 -6 25 33T-13 155Q-13 229 16 310T104 448T244 505Q286 505 307 490T328 448Q336 501 336 539Q336 573 331 595L210 563L198 614L315
647Q297 684 269 718L356 750Q394 718 419 677L530 708L543 652L446 626Q470 565 470 494Q470 449 459 396L408 160Q404 145 404 128Q404 108 413 100T445 91Q473 91 493 115T526 179H568ZM316 405Q316 417 306 430T275 443Q235 443 203 397T153 285T135 169Q135
119 149 105T185 91Q210 91 234 114T268 179L316 405Z" />
<glyph unicode="&#xf1;" glyph-name="ntilde" horiz-adv-x="505" d="M305 569T284 574T236 589Q213 597 196 601T160 606Q123 606 94 580L88 582Q112 630 155 655T255 680Q280 680 301 676T347 662Q390 647 420 647Q460 647 483 670L489 669Q484 646 460 623T400
584T328 569Q305 569 284 574ZM300 -6T272 26T243 107Q243 128 248 154T258 206T266 238Q274 273 281 307T288 362Q288 413 252 413Q226 413 206 388T174 321L106 0H-38L68 500H212L201 448Q251 504 318 504Q369 504 399 476T429 391Q429 362 422 327T402 240Q394
209 388 180T381 133Q381 113 390 102T421 91Q451 91 469 112T505 179H547Q510 69 462 32T361 -6Q300 -6 272 26Z" />
<glyph unicode="&#xf2;" glyph-name="ograve" horiz-adv-x="433" d="M179 750H284L313 561H238L179 750ZM66 -4T23 34T-20 154Q-20 222 8 305T98 448T254 509Q382 509 382 349V348Q385 347 393 347Q426 347 469 364T547 407L556 380Q527 349 481 328T379 297Q371
206 338 138T253 33T140 -4Q66 -4 23 34ZM204 86T228 113T270 188T296 294Q269 300 269 336Q269 377 300 390Q298 423 290 435T262 448Q229 448 198 400T148 285T129 167Q129 119 140 103T180 86Q204 86 228 113Z" />
<glyph unicode="&#xf3;" glyph-name="oacute" horiz-adv-x="439" d="M316 750H421L300 561H225L316 750ZM72 -4T29 34T-14 154Q-14 222 14 305T104 448T260 509Q388 509 388 349V348Q391 347 399 347Q432 347 475 364T553 407L562 380Q533 349 487 328T385 297Q377
206 344 138T259 33T146 -4Q72 -4 29 34ZM210 86T234 113T276 188T302 294Q275 300 275 336Q275 377 306 390Q304 423 296 435T268 448Q235 448 204 400T154 285T135 167Q135 119 146 103T186 86Q210 86 234 113Z" />
<glyph unicode="&#xf4;" glyph-name="ocircumflex" horiz-adv-x="433" d="M307 750H328L388 561H356L296 641L139 561H95L307 750ZM66 -4T23 34T-20 154Q-20 222 8 305T98 448T254 509Q382 509 382 349V348Q385 347 393 347Q426 347 469 364T547 407L556 380Q527
349 481 328T379 297Q371 206 338 138T253 33T140 -4Q66 -4 23 34ZM204 86T228 113T270 188T296 294Q269 300 269 336Q269 377 300 390Q298 423 290 435T262 448Q229 448 198 400T148 285T129 167Q129 119 140 103T180 86Q204 86 228 113Z" />
<glyph unicode="&#xf5;" glyph-name="otilde" horiz-adv-x="433" d="M257 569T236 574T188 589Q165 597 148 601T112 606Q75 606 46 580L40 582Q64 630 107 655T207 680Q233 680 253 676T299 662Q342 647 372 647Q412 647 435 670L441 669Q436 646 412 623T352
584T280 569Q257 569 236 574ZM66 -4T23 34T-20 154Q-20 222 8 305T98 448T254 509Q382 509 382 349V348Q385 347 393 347Q426 347 469 364T547 407L556 380Q527 349 481 328T379 297Q371 206 338 138T253 33T140 -4Q66 -4 23 34ZM204 86T228 113T270 188T296 294Q269
300 269 336Q269 377 300 390Q298 423 290 435T262 448Q229 448 198 400T148 285T129 167Q129 119 140 103T180 86Q204 86 228 113Z" />
<glyph unicode="&#xf6;" glyph-name="odieresis" horiz-adv-x="433" d="M140 573T123 590T105 634Q105 659 122 677T166 695Q191 695 209 677T227 634Q227 608 209 591T166 573Q140 573 123 590ZM320 573T303 590T285 634Q285 659 302 677T346 695Q371 695 389
677T407 634Q407 608 389 591T346 573Q320 573 303 590ZM66 -4T23 34T-20 154Q-20 222 8 305T98 448T254 509Q382 509 382 349V348Q385 347 393 347Q426 347 469 364T547 407L556 380Q527 349 481 328T379 297Q371 206 338 138T253 33T140 -4Q66 -4 23 34ZM204
86T228 113T270 188T296 294Q269 300 269 336Q269 377 300 390Q298 423 290 435T262 448Q229 448 198 400T148 285T129 167Q129 119 140 103T180 86Q204 86 228 113Z" />
<glyph unicode="&#xf7;" glyph-name="divide" horiz-adv-x="415" d="M223 439T200 462T177 518Q177 551 200 574T256 598Q289 598 312 575T336 518Q336 485 313 462T256 439Q223 439 200 462ZM57 380H407L390 301H39L57 380ZM163 84T140 107T117 163Q117 196 140
219T196 243Q229 243 252 220T276 163Q276 130 253 107T196 84Q163 84 140 107Z" />
<glyph unicode="&#xf8;" glyph-name="oslash" horiz-adv-x="428" d="M385 396Q389 372 389 337Q389 241 355 163T262 39T132 -6Q89 -6 54 13L-9 -60H-71L20 45Q-13 90 -13 171Q-13 261 24 337T124 459T261 505Q339 505 368 448L413 500H475L385 396ZM241 450T211
410T159 306T136 180L309 379Q308 413 298 431T271 450Q241 450 211 410ZM201 88T227 117T274 196T304 302L142 115Q151 88 175 88Q201 88 227 117Z" />
<glyph unicode="&#xf9;" glyph-name="ugrave" horiz-adv-x="505" d="M185 750H290L319 561H244L185 750ZM51 -6T22 24T-8 114Q-8 139 0 179L68 500H212L140 160Q137 145 137 132Q137 91 167 91Q195 91 215 114T247 179L315 500H459L387 160Q383 145 383 128Q383
108 392 100T424 91Q452 91 472 115T505 179H547Q510 71 456 33T346 -6Q303 -6 278 18T247 89Q213 34 176 14T99 -6Q51 -6 22 24Z" />
<glyph unicode="&#xfa;" glyph-name="uacute" horiz-adv-x="505" d="M330 750H435L314 561H239L330 750ZM51 -6T22 24T-8 114Q-8 139 0 179L68 500H212L140 160Q137 145 137 132Q137 91 167 91Q195 91 215 114T247 179L315 500H459L387 160Q383 145 383 128Q383
108 392 100T424 91Q452 91 472 115T505 179H547Q510 71 456 33T346 -6Q303 -6 278 18T247 89Q213 34 176 14T99 -6Q51 -6 22 24Z" />
<glyph unicode="&#xfb;" glyph-name="ucircumflex" horiz-adv-x="505" d="M338 750H359L419 561H387L327 641L170 561H126L338 750ZM51 -6T22 24T-8 114Q-8 139 0 179L68 500H212L140 160Q137 145 137 132Q137 91 167 91Q195 91 215 114T247 179L315 500H459L387
160Q383 145 383 128Q383 108 392 100T424 91Q452 91 472 115T505 179H547Q510 71 456 33T346 -6Q303 -6 278 18T247 89Q213 34 176 14T99 -6Q51 -6 22 24Z" />
<glyph unicode="&#xfc;" glyph-name="udieresis" horiz-adv-x="505" d="M171 573T154 590T136 634Q136 659 153 677T197 695Q222 695 240 677T258 634Q258 608 240 591T197 573Q171 573 154 590ZM351 573T334 590T316 634Q316 659 333 677T377 695Q402 695 420
677T438 634Q438 608 420 591T377 573Q351 573 334 590ZM51 -6T22 24T-8 114Q-8 139 0 179L68 500H212L140 160Q137 145 137 132Q137 91 167 91Q195 91 215 114T247 179L315 500H459L387 160Q383 145 383 128Q383 108 392 100T424 91Q452 91 472 115T505 179H547Q510
71 456 33T346 -6Q303 -6 278 18T247 89Q213 34 176 14T99 -6Q51 -6 22 24Z" />
<glyph unicode="&#xfd;" glyph-name="yacute" horiz-adv-x="505" d="M329 750H434L313 561H238L329 750ZM108 -250T76 -225T44 -153Q44 -96 90 -62T207 -4L219 50Q190 18 160 6T99 -6Q51 -6 22 24T-8 114Q-8 139 0 179L68 500H212L140 160Q137 148 137 135Q137
91 167 91Q193 91 213 113T245 173L315 500H459L360 36Q408 52 437 84T486 179H528Q501 90 455 49T351 -8L336 -80Q316 -177 267 -213T156 -250Q108 -250 76 -225ZM150 -172T166 -149T191 -83L197 -54Q99 -90 99 -139Q99 -152 108 -162T133 -172Q150 -172 166 -149Z"
/>
<glyph unicode="&#xfe;" glyph-name="thorn" horiz-adv-x="473" d="M118 732L266 752L200 462H204Q253 505 321 505Q384 505 413 464T443 336Q443 240 411 162T322 39T196 -6Q165 -6 143 3T112 30L60 -214L-91 -250L118 732ZM197 60T230 100T285 206T306 340Q306
433 257 433Q237 433 219 421T187 384L123 83Q126 73 136 67T161 60Q197 60 230 100Z" />
<glyph unicode="&#xff;" glyph-name="ydieresis" horiz-adv-x="505" d="M158 573T141 590T123 634Q123 659 140 677T184 695Q209 695 227 677T245 634Q245 608 227 591T184 573Q158 573 141 590ZM338 573T321 590T303 634Q303 659 320 677T364 695Q389 695 407
677T425 634Q425 608 407 591T364 573Q338 573 321 590ZM108 -250T76 -225T44 -153Q44 -96 90 -62T207 -4L219 50Q190 18 160 6T99 -6Q51 -6 22 24T-8 114Q-8 139 0 179L68 500H212L140 160Q137 148 137 135Q137 91 167 91Q193 91 213 113T245 173L315 500H459L360
36Q408 52 437 84T486 179H528Q501 90 455 49T351 -8L336 -80Q316 -177 267 -213T156 -250Q108 -250 76 -225ZM150 -172T166 -149T191 -83L197 -54Q99 -90 99 -139Q99 -152 108 -162T133 -172Q150 -172 166 -149Z" />
<glyph unicode="&#x2013;" glyph-name="endash" horiz-adv-x="352" d="M37 301H297L280 222H19L37 301Z" />
<glyph unicode="&#x2014;" glyph-name="emdash" horiz-adv-x="444" d="M37 301H387L370 222H19L37 301Z" />
<glyph unicode="&#x2018;" glyph-name="quoteleft" horiz-adv-x="209" d="M132 514T113 533T93 584Q93 623 125 669T212 752L227 737Q206 715 194 696T182 665Q182 658 186 652T200 639Q214 628 222 616T230 584Q230 553 211 534T163 514Q132 514 113 533Z" />
<glyph unicode="&#x2019;" glyph-name="quoteright" horiz-adv-x="238" d="M96 529Q117 551 129 570T141 601Q141 608 137 614T123 627Q109 638 101 650T93 682Q93 713 112 732T160 752Q191 752 210 733T230 682Q230 643 198 597T111 514L96 529Z" />
<glyph unicode="&#x201a;" glyph-name="quotesinglbase" horiz-adv-x="220" d="M-7 -77Q14 -55 26 -36T38 -5Q38 2 34 8T20 21Q6 32 -2 44T-10 76Q-10 107 9 126T57 146Q88 146 107 127T127 76Q127 37 95 -9T8 -92L-7 -77Z" />
<glyph unicode="&#x201c;" glyph-name="quotedblleft" horiz-adv-x="429" d="M132 514T113 533T93 584Q93 623 125 669T212 752L227 737Q206 715 194 696T182 665Q182 658 186 652T200 639Q214 628 222 616T230 584Q230 553 211 534T163 514Q132 514 113 533ZM326
514T307 533T287 584Q287 623 319 669T406 752L421 737Q400 715 388 696T376 665Q376 658 380 652T394 639Q408 628 416 616T424 584Q424 553 405 534T357 514Q326 514 307 533Z" />
<glyph unicode="&#x201d;" glyph-name="quotedblright" horiz-adv-x="426" d="M112 529Q133 551 145 570T157 601Q157 608 153 614T139 627Q125 638 117 650T109 682Q109 713 128 732T176 752Q207 752 226 733T246 682Q246 643 214 597T127 514L112 529ZM306 529Q327
551 339 570T351 601Q351 608 347 614T333 627Q319 638 311 650T303 682Q303 713 322 732T370 752Q401 752 420 733T440 682Q440 643 408 597T321 514L306 529Z" />
<glyph unicode="&#x201e;" glyph-name="quotedblbase" horiz-adv-x="440" d="M-7 -77Q14 -55 26 -36T38 -5Q38 2 34 8T20 21Q6 32 -2 44T-10 76Q-10 107 9 126T57 146Q88 146 107 127T127 76Q127 37 95 -9T8 -92L-7 -77ZM187 -77Q208 -55 220 -36T232 -5Q232 2
228 8T214 21Q200 32 192 44T184 76Q184 107 203 126T251 146Q282 146 301 127T321 76Q321 37 289 -9T202 -92L187 -77Z" />
<glyph unicode="&#x2022;" glyph-name="bullet" horiz-adv-x="434" d="M176 171T148 199T120 267Q120 307 148 335T216 364Q256 364 284 336T313 267Q313 227 285 199T216 171Q176 171 148 199Z" />
<glyph unicode="&#x2039;" glyph-name="guilsinglleft" horiz-adv-x="359" d="M20 238L29 279L336 449L326 394L85 254L279 138L267 81L20 238Z" />
<glyph unicode="&#x203a;" glyph-name="guilsinglright" horiz-adv-x="344" d="M29 138L269 254L75 394L84 449L330 279L319 225L15 81L29 138Z" />
</font>
</defs>
</svg>
